img image001 image001 image001 image001 image001 image001 image001 image001 image001 image001 image001 image001 image001 image001 image001 image001

Planets Sun Sun Sun
Статистика раздачи
Автор: Nickolas3434 | Размер: 750.24 МБ | Добавлен: 10 авг 2017
Раздают: 10    Качают: 1
Скачать торрент
Скачать торрент
Описание торрента

СообщениеДобавлено: 10 авг 2017 

Информация о фильме
Название: Отец солдата
Год выхода: 1964
Жанр: Драма, военный
Режиссер: Резо Чхеидзе
В ролях: Серго Закариадзе, Владимир Привальцев, Александр Назаров, Александр Лебедев, Юрий Дроздов, Владимир Колокольцев, Виктор Уральский, Кетеван Бочоришвили, Владимир Пицек, Петр Любешкин, Николай Бармин, Инна Выходцева, Елена Максимова, Роман Вильдан, Раднэр Муратов, Бондо Гогинава, Виктор Мизин, Валентин Куклик, Гижури Кобахидзе, Ираклий Кокрашвили, Иван Косых, Виктор Косых, Татьяна Сапожникова, Вячеслав Жариков

О фильме:
Противоестественность войны для человека - труженика, созидателя - показана на примере судьбы старого крестьянина-виноградаря из Грузии. Георгий Махарашвили едет повидаться с сыном, который ранен и находится в госпитале. Но пока отец добирается до места назначения, сын снова отправляется на фронт. Однако Георгий уже не может вернуться в родную деревню. Он вместе с советской армией проходит весь ее путь - путь до Берлина, до Победы над фашизмом. И только в последние дни войны находит сына. Увы, встреча эта была последней...



Страна: СССР
Студия: Грузия-фильм
Продолжительность: 01:26:37
Язык: Русский
Перевод: Одноголосый, закадровый (на грузинскую речь)

Файл
Кодек: XviD
Качество: HDTVRip
Видео: 576x432 (1.33:1), 25 fps, XviD build 73 ~1073 kbps avg, 0.17 bit/pixel
Звук: 48 kHz, MPEG Layer 3, 2 ch, ~128.00 kbps avg
Субтитры: Отсутствуют

Семпл

General
Complete name : D:RIPOtec.soldata.1964.HDTVRip by shkiper.avi
Format : AVI
Format/Info : Audio Video Interleave
File size : 750 MiB
Duration : 1 h 26 min
Overall bit rate : 1 211 kb/s
Writing application : VirtualDubMod 1.5.10.3 | www.virtualdub-fr.org || (build 2550/release)
Writing library : VirtualDubMod build 2550/release

Video
ID : 0
Format : MPEG-4 Visual
Format profile : Advanced Simple@L5
Format settings, BVOP : 1
Format settings, QPel : No
Format settings, GMC : No warppoints
Format settings, Matrix : Custom
Codec ID : XVID
Codec ID/Hint : XviD
Duration : 1 h 26 min
Bit rate : 1 073 kb/s
Width : 576 pixels
Height : 432 pixels
Display aspect ratio : 4:3
Frame rate : 25.000 FPS
Color space : YUV
Chroma subsampling : 4:2:0
Bit depth : 8 bits
Scan type : Progressive
Compression mode : Lossy
Bits/(Pixel*Frame) : 0.173
Stream size : 665 MiB (89%)
Writing library : XviD 73

Audio
ID : 1
Format : MPEG Audio
Format version : Version 1
Format profile : Layer 3
Codec ID : 55
Codec ID/Hint : MP3
Duration : 1 h 26 min
Bit rate mode : Constant
Bit rate : 128 kb/s
Channel(s) : 2 channels
Sampling rate : 48.0 kHz
Compression mode : Lossy
Stream size : 79.3 MiB (11%)
Alignment : Aligned on interleaves
Interleave, duration : 40 ms (1.00 video frame)
Interleave, preload duration : 504 ms
Writing library : LAME3.99r
Encoding settings : -m s -V 4 -q 2 -lowpass 17 -b 128


Релиз от:



   Похожие торренты   Торрент   Размер 
В этой теме нет новых непрочитанных сообщений. Отец солдата (1964) HDTVRip от MediaClub | Цветная версия

164 | 16

1.34 ГБ

В этой теме нет новых непрочитанных сообщений. Отец солдата (1964) HDTVRip-AVC от MediaClub | Цветная версия

28 | 3

2.32 ГБ

В этой теме нет новых непрочитанных сообщений. Отец солдата (1964) HDTVRip 720p от MediaClub | Цветная версия

166 | 9

3.05 ГБ

В этой теме нет новых непрочитанных сообщений. Взорвите банк! / Faites sauter la banque! [Цветная версия] (Жан Жиро) [1964, комедия, криминал, HDTVRip] DVO

6 | 0

1.45 ГБ

В этой теме нет новых непрочитанных сообщений. Берегись автомобиля (1966) HDTVRip от ExKinoRay | Цветная версия

12 | 0

744.55 МБ

В этой теме нет новых непрочитанных сообщений. Берегись автомобиля (1966) HDTVRip-AVC от ExKinoRay | Цветная версия

10 | 1

746.52 МБ

В этой теме нет новых непрочитанных сообщений. Весна на Заречной улице (1956) HDTVRip-AVC от ExKinoRay | Цветная версия

579 | 25

4.05 ГБ




Вы не можете начинать темы
Вы не можете отвечать на сообщения
Вы не можете редактировать свои сообщения
Вы не можете удалять свои сообщения
Вы не можете добавлять вложения

Перейти:  
 Вход
ppkBB3cker v.2 © 2008-2014 @ PPK
[ Time : 3.868s | 18 Queries | GZIP : Off ]

cron