img image001 image001 image001 image001 image001 image001 image001 image001 image001 image001 image001 image001 image001 image001 image001 image001

Planets Sun Sun Sun
Статистика раздачи
Автор: Nickolas3434 | Размер: 2.91 ГБ | Добавлен: 28 май 2017
Раздают: 0    Качают: 0
Скачать торрент
Скачать торрент
Описание торрента

СообщениеДобавлено: 28 май 2017 


Мы "В КОНТАКТЕ"


Страна: Германия (ГДР), СССР
Производство: Киностудия им. Горького, ДЕФА
Жанр: драма
Год выпуска: 1962
Продолжительность: 03:19:42 (01:35:36 + 01:44:06)
Перевод: Не требуется
Cубтитры: нет
Оригинальная аудиодорожка: русский
Режиссер: Сергей Герасимов
В ролях:
Николай Ерёменко (ст.), Тамара Макарова, Жанна Болотова, Виталий Доронин, Наталья Медведева, Сергей Никоненко, Олеся Иванова, Анастасия Филиппова (Горина), Михаил Глузский, Вадим Захарченко, Татьяна Гаврилова, Сергей Герасимов, Мария Рувель, Фридрих Вильгельм Юнге, Петер Ройссе, Вернер Тёльке...
Об актёрах подробней
Описание:
В основе сюжета — драматическая судьба советского офицера Алексея Павлова. Попав в январе 1942 года подо Мгой в плен и, оказавшись в числе перемещенных лиц, герой не сразу решился на возвращение в СССР. Поскитавшись по чужбине 17 лет, Алексей все же вернулся на родину. Случайные попутчицы, ехавшие из Москвы на юг, — врач Анна Андреевна и ее дочь Таня — стали первыми, кому Павлов поведал о своих мытарствах.





Источник: 2хDVD9 R5
Качество видео: DVDRip
Формат видео: AVI
Видео: 704x528 (4:3), 25 fps, XviD ~ 1627 kbps avg, 0.175 bit/pixel
Аудио: 48 kHz, Dolby Digital AC3 5.1, 448 kbps
Раздача от:
Общее
Полное имя : Lyudi.i.zveri.1962.DVDRip_[New-team]_by_AVP_Studio.avi
Формат : AVI
Формат/Информация : Audio Video Interleave
Размер файла : 1,39 Гбайт
Продолжительность : 1 ч. 35 м.
Общий поток : 2084 Кбит/сек
Программа кодирования : VirtualDubMod 1.5.10.3 | www.virtualdub-fr.org || (build 2550/release)
Библиотека кодирования : VirtualDubMod build 2550/release
Видео
Идентификатор : 0
Формат : MPEG-4 Visual
Профиль формата : Advanced Simple@L5
Параметр BVOP формата : 1
Параметр QPel формата : Нет
Параметр GMC формата : Без точки перехода
Параметр матрицы формата : Выборочная
Идентификатор кодека : XVID
Идентификатор кодека/Подсказка : XviD
Продолжительность : 1 ч. 35 м.
Битрейт : 1627 Кбит/сек
Ширина : 704 пикселя
Высота : 528 пикселей
Соотношение сторон : 4:3
Частота кадров : 25,000 кадров/сек
Цветовое пространство : YUV
Субдискретизация насыщенности : 4:2:0
Битовая глубина : 8 бит
Тип развёртки : Прогрессивная
Метод сжатия : С потерями
Бит/(Пиксели*Кадры) : 0.175
Размер потока : 1,09 Гбайт (78%)
Библиотека кодирования : XviD 73
Аудио
Идентификатор : 1
Формат : AC-3
Формат/Информация : Audio Coding 3
Параметр Endianness формата : Big
Идентификатор кодека : 2000
Продолжительность : 1 ч. 35 м.
Вид битрейта : Постоянный
Битрейт : 448 Кбит/сек
Каналы : 6 каналов
Расположение каналов : Front: L C R, Side: L R, LFE
Частота : 48,0 КГц
Частота кадров : 31,250 кадров/сек (1536 spf)
Битовая глубина : 16 бит
Метод сжатия : С потерями
Размер потока : 306 Мбайт (21%)
Выравнивание : Разделение по промежуткам
Продолжительность промежутка : 40 мс. (1,00 видеокадр)
Время предзагрузки промежутка : 500 мс





   Похожие торренты   Торрент   Размер 
В этой теме нет новых непрочитанных сообщений. Люди и звери (1962) DVDRip-AVC от New-Team

27 | 0

2.91 ГБ

В этой теме нет новых непрочитанных сообщений. Люди и звери (1962) DVDRip от New-Team

9 | 0

1.46 ГБ

В этой теме нет новых непрочитанных сообщений. Деловые люди (1962) HDDVDRip от New-Team

3 | 3

1.09 ГБ

В этой теме нет новых непрочитанных сообщений. Деловые люди (1962) HDDVDRip-AVC от New-Team

60 | 3

1.46 ГБ

В этой теме нет новых непрочитанных сообщений. Деловые люди (1962) DVDRip от MediaClub | КПК

77 | 11

360.13 МБ

В этой теме нет новых непрочитанных сообщений. Люди и звери / Domestic (2012) DVDRp | P2

6 | 1

1.36 ГБ

В этой теме нет новых непрочитанных сообщений. Летающие звери [S01] (2012) DVDRip от New-Team | лицензия

31 | 4

919.57 МБ




Вы не можете начинать темы
Вы не можете отвечать на сообщения
Вы не можете редактировать свои сообщения
Вы не можете удалять свои сообщения
Вы не можете добавлять вложения

Перейти:  
 Вход
ppkBB3cker v.2 © 2008-2014 @ PPK
[ Time : 0.017s | 15 Queries | GZIP : Off ]

cron