img image001 image001 image001 image001 image001 image001 image001 image001 image001 image001 image001 image001 image001 image001 image001 image001

Planets Sun Sun Sun
Статистика раздачи
Автор: Nickolas3434 | Размер: 745.18 МБ | Добавлен: 23 май 2017
Раздают: 14    Качают: 1
Скачать торрент
Скачать торрент
Описание торрента

СообщениеДобавлено: 23 май 2017 


Мы "В КОНТАКТЕ"


Страна: СССР
Производство: Никола-фильм
Жанр: драма
Год выпуска: 1993
Продолжительность: 01:48:55
Перевод: Не требуется
Cубтитры: нет
Оригинальная аудиодорожка: русский
Режиссер: Виктор Сергеев
В ролях:
Александр Абдулов, Ольга Понизова, Ольга Антонова, Борис Клюев, Владимир Сошальский, Константин Заклинский, Георгий Мартиросьян, Нина Русланова, Андрей Ургант, Валентин Никулин, Юлия Яковлева, Сергей Снежкин, Анатолий Шведерский, Александр Сластин, Александр Кириллов, Анна Твеленёва, Михаэла Эрхарт, Андрей Максимков, Светлана Столбова...
Об актёрах подробней
Описание:
Александр Абдулов сыграл в этом фильме необычного для русского кино героя - современного священника. Влюбленная в него Нина готова пойти на любые жертвы и ухищрения, чтобы добиться взаимности. Девушка не знает, что объект ее желания далек от идеала святости, а его прошлое отягощено преступлением.





Источник: DVD9 R5
Качество видео: DVDRip
Формат видео: AVI
Видео: 576x432 (4:3), 25 fps, XviD ~ 819 kbps avg, 0.132 bit/pixel
Аудио: 48 kHz, MP3 2.0, 128 kbps
Раздача от:
Общее
Полное имя : Greh.Istoriya.strasti.1993.DVDRip-745_[New-team]_by_AVP_Studio.avi
Формат : AVI
Формат/Информация : Audio Video Interleave
Размер файла : 745 Мбайт
Продолжительность : 1 ч. 48 м.
Общий поток : 956 Кбит/сек
Программа кодирования : VirtualDubMod 1.5.10.3 | www.virtualdub-fr.org || (build 2550/release)
Библиотека кодирования : VirtualDubMod build 2550/release
Видео
Идентификатор : 0
Формат : MPEG-4 Visual
Профиль формата : Advanced Simple@L5
Параметр BVOP формата : 1
Параметр QPel формата : Нет
Параметр GMC формата : Без точки перехода
Параметр матрицы формата : Выборочная
Идентификатор кодека : XVID
Идентификатор кодека/Подсказка : XviD
Продолжительность : 1 ч. 48 м.
Битрейт : 819 Кбит/сек
Ширина : 576 пикселей
Высота : 432 пикселя
Соотношение сторон : 4:3
Частота кадров : 25,000 кадров/сек
Цветовое пространство : YUV
Субдискретизация насыщенности : 4:2:0
Битовая глубина : 8 бит
Тип развёртки : Прогрессивная
Метод сжатия : С потерями
Бит/(Пиксели*Кадры) : 0.132
Размер потока : 638 Мбайт (86%)
Библиотека кодирования : XviD 73
Аудио
Идентификатор : 1
Формат : MPEG Audio
Версия формата : Version 1
Профиль формата : Layer 3
Идентификатор кодека : 55
Идентификатор кодека/Подсказка : MP3
Продолжительность : 1 ч. 48 м.
Вид битрейта : Постоянный
Битрейт : 128 Кбит/сек
Каналы : 2 канала
Частота : 48,0 КГц
Метод сжатия : С потерями
Размер потока : 99,7 Мбайт (13%)
Выравнивание : Соединение по промежуткам
Продолжительность промежутка : 40 мс. (1,00 видеокадр)
Время предзагрузки промежутка : 504 мс.
Библиотека кодирования : LAME3.99r
Настройки программы : -m s -V 4 -q 2 -lowpass 17 -b 128





   Похожие торренты   Торрент   Размер 
В этой теме нет новых непрочитанных сообщений. Грех. История страсти (1993) DVDRip от New-Team

4 | 0

1.46 ГБ

В этой теме нет новых непрочитанных сообщений. Грех. История страсти (1993) DVDRip-AVC от New-Team

23 | 3

1.46 ГБ

В этой теме нет новых непрочитанных сообщений. Несмертный грех / Грех, достойный прощения / Peccato veniale (1974) DVDRip | L1

150 | 65

1.36 ГБ

В этой теме нет новых непрочитанных сообщений. Страсти по Анжелике (1993) DVDRip

76 | 12

1.37 ГБ

В этой теме нет новых непрочитанных сообщений. Жрица страсти / Woman of Desire (1993) DVDRip | A

495 | 27

1.37 ГБ

В этой теме нет новых непрочитанных сообщений. Жрица страсти / Женщина желания / Woman of Desire (1993) DVDRip

486 | 119

751.3 МБ

В этой теме нет новых непрочитанных сообщений. История одной любви / Воробей / Storia di una capinera / Sparrow (1993) DVDRip | P2

0 | 3

1.38 ГБ




Вы не можете начинать темы
Вы не можете отвечать на сообщения
Вы не можете редактировать свои сообщения
Вы не можете удалять свои сообщения
Вы не можете добавлять вложения

Перейти:  
 Вход
ppkBB3cker v.2 © 2008-2014 @ PPK
[ Time : 0.028s | 15 Queries | GZIP : Off ]

cron