img image001 image001 image001 image001 image001 image001 image001 image001 image001 image001 image001 image001 image001 image001 image001 image001

Planets Sun Sun Sun
Статистика раздачи
Автор: Nickolas3434 | Размер: 1.45 ГБ | Добавлен: 10 апр 2017
Раздают: 33    Качают: 2
Скачать торрент
Скачать торрент
Описание торрента

СообщениеДобавлено: 10 апр 2017 




Год выпуска: 1971
Жанры: детский, комедия
В ролях: Михаил Защипин (Малыш), Спартак Мишулин (Карлсон), Татьяна Пельтцер (Фрекен Бок), Наталья Защипина (мама), Полина Казакевич (Астрид), Юрий Соковнин (Филле), Андрей Миронов (Рулле), Елена Юргенсон (Бетан)
Режиссер: Маргарита Микаэлян, Валентин Плучек
Сценарий: Маргарита Микаэлян, Валентин Плучек, Софья Прокофьева
Оператор: Владимир Ошеров, И. Гриднев
Композитор : Андрей Эшпай
Художник: Борис Мессерер
Описание:
Озорной Карлсон и доверчивый Малыш — герои всем известной сказки. Карлсон очень любит пошалить, а на все последствия шалостей у него есть «фирменная» отговорка: «Пустяки, дело то житейское!». Правда, родители Малыша так не считают, но все равно, скучать со своим летающим другом ему не приходится. То, лазая по крышам, друзья предотвращают крупную кражу (в роли жулика — Андрей Миронов), то вместе укрощают злую домомучительницу.

Страна: СССР
Продолжительность: 01:31:05
Субтитры: нет
Качество: DVDRip-AVC
Формат: MKV
Видео: 720x540 (4:3), 25.000 fps, High@L4.1, ~2024 Kbps
Аудио: AC3, 256 Kbps, 48.0 KHz, 2 ch


General
Unique ID : 248164707496864677534950356636185603992 (0xBAB2C8BCCC5376955E3F8F2FD57F2F98)
Complete name : F:Малыш и Карлсон, который живет на крыше.(1971).DVDRIP-AVC.[-=DoMiNo=-].mkv
Format : Matroska
Format version : Version 4 / Version 2
File size : 1.45 GiB
Duration : 1 h 31 min
Overall bit rate : 2 284 kb/s
Movie name : Малыш и Карлсон, который живет на крыше
Deion : Озорной Карлсон и доверчивый Малыш — герои всем известной сказки. Карлсон очень любит пошалить, а на все последствия шалостей у него есть «фирменная» отговорка: «Пустяки, дело то житейское!». Правда, родители Малыша так не считают, но все равно, скучать со своим летающим другом ему не приходится. То, лазая по крышам, друзья предотвращают крупную кражу (в роли жулика — Андрей Миронов), то вместе укрощают злую домомучительницу.
Writing application : XviD4PSP 7.0.375 DAILY
Writing library : Lavf57.41.100
Attachments : poster.jpg
ACTORS : Михаил Защипин, Спартак Мишулин, Татьяна Пельтцер, Наталья Защипина, Полина Казакевич, Юрий Соковнин, Андрей Миронов, Елена Юргенсон, Константин Райкин
COMPOSER : Андрей Эшпай
COUNTRY : СССР
DATE : 1971
DIRECTOR : Маргарита Микаэлян, Валентин Плучек
ENCODING_INFO : DVD > MKV / MPEG2 > X264 VBR-2P 2024kbps Произвольный / AC3 > COPY Безопасное
GENRE : детский, комедия
IMDB_RATING : 8.50
ITUNEXTC : ru-movie|0+|100|
MEDIA_TYPE : 9
PRODUCER : В. Вершинский
RATING : 7.604
WRITER : Маргарита Микаэлян, Валентин Плучек, Софья Прокофьева
Video
ID : 1
Format : AVC
Format/Info : Advanced Video Codec
Format profile : High@L4.1
Format settings, CABAC : Yes
Format settings, ReFrames : 12 frames
Codec ID : V_MPEG4/ISO/AVC
Duration : 1 h 31 min
Bit rate : 2 024 kb/s
Width : 720 pixels
Height : 540 pixels
Display aspect ratio : 4:3
Frame rate mode : Constant
Frame rate : 25.000 FPS
Color space : YUV
Chroma subsampling : 4:2:0
Bit depth : 8 bits
Scan type : Progressive
Bits/(Pixel*Frame) : 0.208
Stream size : 1.26 GiB (87%)
Title : RIP_BY_-=DoMiNo=-
Writing library : x264 core 148 r2762M 90a61ec
Encoding settings : cabac=1 / ref=12 / deblock=1:-3:-3 / analyse=0x3:0x133 / me=umh / subme=11 / psy=1 / psy_rd=1.00:0.10 / mixed_ref=1 / me_range=48 / chroma_me=1 / trellis=2 / 8x8dct=1 / cqm=0 / deadzone=21,11 / fast_pskip=0 / chroma_qp_offset=-3 / threads=12 / lookahead_threads=3 / sliced_threads=0 / nr=0 / decimate=1 / interlaced=0 / bluray_compat=0 / constrained_intra=0 / bframes=11 / b_pyramid=2 / b_adapt=2 / b_bias=0 / direct=3 / weightb=1 / open_gop=0 / weightp=2 / keyint=250 / keyint_min=25 / scenecut=40 / intra_refresh=0 / rc=2pass / mbtree=0 / bitrate=2024 / ratetol=1.0 / qcomp=0.65 / qpmin=0 / qpmax=69 / qpstep=4 / cplxblur=20.0 / qblur=0.5 / ip_ratio=1.40 / pb_ratio=1.30 / aq=1:1.00
Default : Yes
Forced : No
DURATION : 01:31:04.960000000
Audio
ID : 2
Format : AC-3
Format/Info : Audio Coding 3
Format settings, Endianness : Big
Codec ID : A_AC3
Duration : 1 h 31 min
Bit rate mode : Constant
Bit rate : 256 kb/s
Channel(s) : 2 channels
Channel positions : Front: L R
Sampling rate : 48.0 kHz
Frame rate : 31.250 FPS (1536 spf)
Bit depth : 16 bits
Compression mode : Lossy
Stream size : 167 MiB (11%)
Title : RUS
Language : Russian
Service kind : Complete Main
Default : Yes
Forced : No
DURATION : 01:31:04.992000000
Menu
00:00:00.000 : :Глава 1
00:20:20.440 : :Глава 2
00:38:13.080 : :Глава 3
00:54:41.120 : :Глава 4
01:11:06.200 : :Глава 5
01:25:45.639 : :Глава 6
01:31:04.520 : :Глава 7





   Похожие торренты   Торрент   Размер 
В этой теме нет новых непрочитанных сообщений. Малыш и Карлсон, Карлсон вернулся (1968-1970) BDRip 720p

957 | 82

1.44 ГБ

В этой теме нет новых непрочитанных сообщений. Малыш и Карлсон [Дилогия] (1968-1970) BDRip от MediaClub | КПК

194 | 32

171.17 МБ

В этой теме нет новых непрочитанных сообщений. Скрипач на крыше / Fiddler on the Roof (1971) HDRip

40 | 4

1.47 ГБ

В этой теме нет новых непрочитанных сообщений. Скрипач на крыше / Fiddler on the Roof (1971) BDRip от Koenig | P2, A

16 | 5

2.9 ГБ

В этой теме нет новых непрочитанных сообщений. Последний фильм / The Last Movie (1971) DVDRip | L1

48 | 18

1.46 ГБ

В этой теме нет новых непрочитанных сообщений. Спектакль - Поднятая целина (1971) SATRip от MediaClub

39 | 6

2.06 ГБ

В этой теме нет новых непрочитанных сообщений. Крошка Нильс Карлсон / Nils Karlsson Pyssling (1990) DVDRip | L, L1

83 | 3

1.73 ГБ




Вы не можете начинать темы
Вы не можете отвечать на сообщения
Вы не можете редактировать свои сообщения
Вы не можете удалять свои сообщения
Вы не можете добавлять вложения

Перейти:  
 Вход
ppkBB3cker v.2 © 2008-2014 @ PPK
[ Time : 0.019s | 17 Queries | GZIP : Off ]

cron