img image001 image001 image001 image001 image001 image001 image001 image001 image001 image001 image001 image001 image001 image001 image001 image001

Planets Sun Sun Sun
Статистика раздачи
Автор: PriZraK | Размер: 1.8 ГБ | Добавлен: 31 янв 2017
Раздают: 5    Качают: 0
Скачать торрент
Скачать торрент
Описание торрента

СообщениеДобавлено: 31 янв 2017 


Информация о фильме
Название: И жизнь, и слёзы, и любовь
Год выхода: 1983
Жанр: драма, мелодрама
Режиссер: Николай Губенко
В ролях: Жанна Болотова, Елена Фадеева, Федор Никитин, Петр Щербаков, Сергей Мартинсон, Евгений Евстигнеев, Михаил Брылкин, Капитолина Ильенко, Иван Козловский, Алексей Дроздов, Мария Скворцова, Иван Казьмин, Тимофей Хлыстов, Наталья Гундарева, Наталья Крачковская, Любовь Соколова
О фильме:
Скучным и однообразным было существование обитателей дома ветеранов. Всё изменилось с приездом нового главного врача. Она старается не только лечить недуги стариков, но возвратить им утраченный было интерес к жизни, веру в то, что можно еще любить и быть любимым…

Страна: СССР
Студия: Мосфильм
Продолжительность: 01:36:52
Файл
Кодек: AVC
Качество: DVDRip-AVC
Видео: 696x576 (742x576) | 1,288:1 | 25 кадров/сек | 2413 Кбит/сек
Звук: AC-3 | 2 канала | 48,0 КГц | 192 Кбит/сек
Семпл

x264 [info]: frame I:726 Avg QP:14.89 size: 50524
x264 [info]: frame P:26805 Avg QP:16.33 size: 25191
x264 [info]: frame B:117789 Avg QP:19.39 size: 9156
x264 [info]: consecutive B-frames: 0.7% 1.0% 3.4% 11.2% 12.1% 56.0% 8.5% 3.7% 2.3% 0.6% 0.4%
======================================
Формат : Matroska
Версия формата : Version 2
Размер файла : 1,80 Гбайт
Продолжительность : 1 ч. 36 м.
Общий поток : 2658 Кбит/сек
Дата кодирования : UTC 2017-01-29 07:49:03
Программа кодирования : mkvmerge v9.2.0 ('Photograph') 32bit
Библиотека кодирования : libebml v1.3.3 + libmatroska v1.4.4
Обложка : Yes
Attachments : cover.jpg
Видео
Идентификатор : 1
Формат : AVC
Формат/Информация : Advanced Video Codec
Профиль формата : High@L4
Параметр CABAC формата : Да
Параметр ReFrames формата : 16 кадров
Идентификатор кодека : V_MPEG4/ISO/AVC
Продолжительность : 1 ч. 36 м.
Битрейт : 2413 Кбит/сек
Ширина : 696 пикселей
Высота : 576 пикселей
Соотношение сторон : 1,288
Соотношение сторон в оригинале : 1,289
Режим частоты кадров : Постоянный
Частота кадров : 25,000 кадров/сек
Цветовое пространство : YUV
Субдискретизация насыщенности : 4:2:0
Битовая глубина : 8 бит
Тип развёртки : Прогрессивная
Бит/(Пиксели*Кадры) : 0.241
Размер потока : 1,63 Гбайт (91%)
Библиотека кодирования : x264 core 148 r2744 b97ae06
Настройки программы : cabac=1 / ref=16 / deblock=1:-3:-2 / analyse=0x3:0x113 / me=umh / subme=11 / psy=1 / psy_rd=1.00:0.05 / mixed_ref=1 / me_range=32 / chroma_me=1 / trellis=2 / 8x8dct=1 / cqm=0 / deadzone=21,11 / fast_pskip=1 / chroma_qp_offset=-3 / threads=4 / lookahead_threads=1 / sliced_threads=0 / nr=0 / decimate=1 / interlaced=0 / bluray_compat=0 / constrained_intra=0 / bframes=10 / b_pyramid=2 / b_adapt=2 / b_bias=0 / direct=1 / weightb=1 / open_gop=0 / weightp=2 / keyint=250 / keyint_min=25 / scenecut=40 / intra_refresh=0 / rc=crf / mbtree=0 / crf=17.5 / qcomp=0.80 / qpmin=0 / qpmax=69 / qpstep=4 / ip_ratio=1.40 / pb_ratio=1.30 / aq=3:1.00
Default : Да
Forced : Нет
Аудио
Идентификатор : 2
Формат : AC-3
Формат/Информация : Audio Coding 3
Расширение режима : CM (complete main)
Параметр Endianness формата : Big
Идентификатор кодека : A_AC3
Продолжительность : 1 ч. 36 м.
Вид битрейта : Постоянный
Битрейт : 192 Кбит/сек
Каналы : 2 канала
Расположение каналов : Front: L R
Частота : 48,0 КГц
Частота кадров : 31,250 кадров/сек (1536 spf)
Битовая глубина : 16 бит
Метод сжатия : С потерями
Размер потока : 133 Мбайт (7%)
Язык : Russian
Default : Да
Forced : Нет
Меню
00:00:00.000 : :Chapter 01
00:06:36.560 : :Chapter 02
00:10:53.400 : :Chapter 03
00:14:33.360 : :Chapter 04
00:25:13.760 : :Chapter 05
00:31:40.960 : :Chapter 06
00:36:16.840 : :Chapter 07
00:40:17.840 : :Chapter 08
00:45:19.480 : :Chapter 09
00:49:14.560 : :Chapter 10
00:53:34.440 : :Chapter 11
00:59:07.800 : :Chapter 12
01:05:43.600 : :Chapter 13
01:11:38.000 : :Chapter 14
01:17:58.960 : :Chapter 15
01:21:31.360 : :Chapter 16
01:23:41.000 : :Chapter 17
01:29:57.200 : :Chapter 18



   Похожие торренты   Торрент   Размер 
В этой теме нет новых непрочитанных сообщений. И жизнь, и слезы, и любовь... (1984) DVDRip-AVC от KORSAR

5 | 0

1.62 ГБ

В этой теме нет новых непрочитанных сообщений. DJ D.V.A. - И жизнь, и слезы, и любовь... (2014) MP3

78 | 80

183.33 МБ

В этой теме нет новых непрочитанных сообщений. Слезы капали (1983) DVDRip от New-Team

35 | 6

744.72 МБ

В этой теме нет новых непрочитанных сообщений. Слезы капали (1983) DVDRip от New-Team

318 | 26

1.46 ГБ

В этой теме нет новых непрочитанных сообщений. Слезы капали (1983) DVDRip-AVC от New-Team

89 | 6

1.46 ГБ

В этой теме нет новых непрочитанных сообщений. VA - И Смех и Слёзы и Любовь (2014) MP3 от IMA-Sound

140 | 15

767.53 МБ

В этой теме нет новых непрочитанных сообщений. Огненная любовь / Brandende liefde (1983) DVDRip | Sub

26 | 4

1.35 ГБ




Вы не можете начинать темы
Вы не можете отвечать на сообщения
Вы не можете редактировать свои сообщения
Вы не можете удалять свои сообщения
Вы не можете добавлять вложения

Перейти:  
 Вход
ppkBB3cker v.2 © 2008-2014 @ PPK
[ Time : 0.027s | 15 Queries | GZIP : Off ]

cron