img image001 image001 image001 image001 image001 image001 image001 image001 image001 image001 image001 image001 image001 image001 image001 image001

Planets Sun Sun Sun
Статистика раздачи
Автор: PriZraK | Размер: 1.09 ГБ | Добавлен: 29 дек 2016
Раздают: 0    Качают: 0
Скачать торрент
Скачать торрент
Описание торрента

СообщениеДобавлено: 29 дек 2016 

Страна: СССР
Производство: Мосфильм
Жанр: драма
Год выпуска: 1956
Продолжительность: 01:38:16
Перевод: Не требуется
Cубтитры: нет
Оригинальная аудиодорожка: русский
Режиссер: Михаил Ромм
В ролях:
Евгения Козырева, Михаил Козаков, Николай Комиссаров, Максим Штраух, Ростислав Плятт, Владимир Муравьёв, Георгий Вицин, Александр Пелевин, Анатолий Кубацкий, Павел Шпрингфельд, Елена Понсова, Леонид Губанов, Геннадий Юдин, Олег Голубицкий, Валентин Гафт, Александр Шатов...
Полный список актёров
Описание:
В годы войны французская актриса Мадлен Тибо, активная участница Сопротивления, случайно узнала, что ее сын завербован фашистами. Все ее попытки пробудить в сыне патриотические чувства безуспешны. По вине Шарля погибают многие его соотечественники и родные. В смертельной опасности оказывается и сама Мадлен…





Источник: DVD5 R5
Качество видео: DVDRip
Формат видео: AVI
Видео: 688x512 (4:3), 25 fps, XviD ~ 1384 kbps avg, 0.157 bit/pixel
Аудио: 48 kHz, Dolby Digital AC3 2.0, 192 kbps
Раздача от:
Общее
Полное имя : Ubiystvo.na.ulice.Dante.1956.DVDRip_[New-team]_by_AVP_Studio.avi
Формат : AVI
Формат/Информация : Audio Video Interleave
Размер файла : 1,09 Гбайт
Продолжительность : 1 ч. 38 м.
Общий поток : 1586 Кбит/сек
Программа кодирования : VirtualDubMod 1.5.10.3 | www.virtualdub-fr.org || (build 2550/release)
Библиотека кодирования : VirtualDubMod build 2550/release
Видео
Идентификатор : 0
Формат : MPEG-4 Visual
Профиль формата : Advanced Simple@L5
Параметр BVOP формата : 1
Параметр QPel формата : Нет
Параметр GMC формата : Без точки перехода
Параметр матрицы формата : Выборочная
Идентификатор кодека : XVID
Идентификатор кодека/Подсказка : XviD
Продолжительность : 1 ч. 38 м.
Битрейт : 1384 Кбит/сек
Ширина : 688 пикселей
Высота : 512 пикселей
Соотношение сторон : 4:3
Частота кадров : 25,000 кадров/сек
Цветовое пространство : YUV
Субдискретизация насыщенности : 4:2:0
Битовая глубина : 8 бит
Тип развёртки : Прогрессивная
Метод сжатия : С потерями
Бит/(Пиксели*Кадры) : 0.157
Размер потока : 973 Мбайт (87%)
Библиотека кодирования : XviD 73
Аудио
Идентификатор : 1
Формат : AC-3
Формат/Информация : Audio Coding 3
Расширение режима : CM (complete main)
Параметр Endianness формата : Big
Идентификатор кодека : 2000
Продолжительность : 1 ч. 38 м.
Вид битрейта : Постоянный
Битрейт : 192 Кбит/сек
Каналы : 2 канала
Расположение каналов : Front: L R
Частота : 48,0 КГц
Частота кадров : 31,250 кадров/сек (1536 spf)
Битовая глубина : 16 бит
Метод сжатия : С потерями
Размер потока : 135 Мбайт (12%)
Выравнивание : Разделение по промежуткам
Продолжительность промежутка : 40 мс. (1,00 видеокадр)
Время предзагрузки промежутка : 500 мс





   Похожие торренты   Торрент   Размер 
В этой теме нет новых непрочитанных сообщений. Убийство на улице Данте (1956) DVDRip от New-Team

2 | 0

745.14 МБ

В этой теме нет новых непрочитанных сообщений. Убийство на улице Данте (1956) DVDRip-AVC от New-Team

9 | 0

1.09 ГБ

В этой теме нет новых непрочитанных сообщений. Убийство на улице Данте (1956) DVDRip

19 | 2

1.37 ГБ

В этой теме нет новых непрочитанных сообщений. Весна на Заречной улице (1956) HDTVRip от New-Team

13 | 1

1.09 ГБ

В этой теме нет новых непрочитанных сообщений. Весна на Заречной улице (1956) HDTVRip от New-Team

23 | 1

744.51 МБ

В этой теме нет новых непрочитанных сообщений. Весна на Заречной улице (1956) HDTVRip-AVC от New-Team

91 | 12

1.46 ГБ

В этой теме нет новых непрочитанных сообщений. Весна на Заречной улице (1956) BDRip 1080p

30 | 18

8.45 ГБ




Вы не можете начинать темы
Вы не можете отвечать на сообщения
Вы не можете редактировать свои сообщения
Вы не можете удалять свои сообщения
Вы не можете добавлять вложения

Перейти:  
 Вход
ppkBB3cker v.2 © 2008-2014 @ PPK
[ Time : 0.016s | 16 Queries | GZIP : Off ]

cron