img image001 image001 image001 image001 image001 image001 image001 image001 image001 image001 image001 image001 image001 image001 image001 image001

Planets Sun Sun Sun
Статистика раздачи
Автор: Снежана | Размер: 1.45 ГБ | Добавлен: 22 июл 2013
Раздают: 17    Качают: 5
Скачать торрент
Скачать торрент
Описание торрента

СообщениеДобавлено: 22 июл 2013 

Подземелье драконов 3: Книга заклинаний / Dungeons & Dragons: The Book of Vile Darkness (2012) BDRip-AVC



Информация о фильме
Название: Подземелье драконов 3: Книга заклинаний
Оригинальное название: Dungeons & Dragons: The Book of Vile Darkness
Год выхода: 2012
Жанр: фэнтези, приключения
Режиссер: Джерри Лайвли

В ролях: Мэган Гуд, Элеанор Гекс, Джеймс Роулингс, Энтони Хауэлл, Бо Брассо, Яна Титова, Доминик Мафэм, Алексис Дэниэл, Хабиб Назиб Нэйдер, Аарон Сэкстон, Остин Нолти, Ллойд Питтс, Йонас Токингтон, Бэрри Аирд, Калойан Воденичаров, Харди Гэтлин, Адам Сибли, Джон С. Клейн, Райан Х. Джексон, Майкл Патрик Роджерс

О фильме: 2000 лет назад могучий колдун Нагрул, вселявший в людские сердца страх и отчаяние, перед лицом смерти продал свою душу Демону, чтобы его полный ненависти дух выжил, когда его тело умрет. В мучительном ритуале, верные слуги сделали из кожи мага страницы, из раздробленных костей сделали обложку, а его мертвой кровью написали Книгу Заклинаний. Любой прочитавший ее, либо терял разум, либо, ослепленный темными знаниями, вставал на сторону Зла. Стремительно растущая армия тьмы покоряла все новые и новые территории, следуя наставлениям своего хозяина, сея хаос и разрушения.

На борьбу со Злом встал Орден Рыцарей Нового Солнца. Чистота их сердец была так велика, что Пела — бог света, даровал им могучие амулеты, с помощью которых воинам удалось разбить огромную армию врага. Но верные служители Нагрула успели спрятать книгу. И никто из ордена не мог найти ее. Постепенно поиски прекратились. Воцарившейся мир быстро стер в памяти людей темные времена. Но слуги Нагрула только ждали подходящего момента…



Страна: Великобритания
Продолжительность: 01:29:54
Перевод: Профессиональный (многоголосый закадровый)

Файл
Кодек: x.264
Качество: BDRip-AVC
Видео: 1024x576 (16:9), 23.976 fps, 1860 kbps, 0.132 bit/pixel
Звук: 48 kHz, AC3 5.1, 448.00 kbps

& Сэмпл

Общее
Уникальный идентификатор : 247355726029050285254104166162130437407 (0xBA16FADF2668B4EEB2A2C90ABABE851F)
Полное имя : D:Dungeons & Dragons.2012.BDRip-AVC.mkv
Формат : Matroska
Версия формата : Version 4 / Version 2
Размер файла : 1,45 Гбайт
Продолжительность : 1 ч. 29 м.
Общий поток : 2309 Кбит/сек
Название фильма : Подземелье драконов 3: Книга заклинаний / Dungeons & Dragons: The Book of Vile Darkness (2012) BDRip-AVC rip by Rulya74
Дата кодирования : UTC 2010-02-22 21:41:31
Программа кодирования : mkvmerge v5.9.0 ('On The Loose') built on Dec 9 2012 15:37:01
Библиотека кодирования : libebml v1.3.0 + libmatroska v1.4.0

Видео
Идентификатор : 1
Формат : AVC
Формат/Информация : Advanced Video Codec
Профиль формата : High@L4.1
Параметр CABAC формата : Да
Параметр ReFrames формата : 14 кадров
Идентификатор кодека : V_MPEG4/ISO/AVC
Продолжительность : 1 ч. 29 м.
Битрейт : 1860 Кбит/сек
Ширина : 1024 пикселя
Высота : 576 пикселей
Соотношение сторон : 16:9
Частота кадров : 23,976 кадра/сек
Цветовое пространство : YUV
Субдискретизация насыщенности : 4:2:0
Битовая глубина : 8 бит
Тип развёртки : Прогрессивная
Бит/(Пиксели*Кадры) : 0.132
Размер потока : 1,14 Гбайт (79%)
Библиотека кодирования : x264 core 129 r2230 1cffe9f
Настройки программы : cabac=1 / ref=14 / deblock=1:-3:-3 / analyse=0x3:0x133 / me=umh / subme=10 / psy=1 / psy_rd=1.25:0.00 / mixed_ref=1 / me_range=32 / chroma_me=1 / trellis=2 / 8x8dct=1 / cqm=0 / deadzone=21,11 / fast_pskip=0 / chroma_qp_offset=-2 / threads=12 / lookahead_threads=2 / sliced_threads=0 / nr=0 / decimate=1 / interlaced=0 / bluray_compat=0 / constrained_intra=0 / bframes=13 / b_pyramid=2 / b_adapt=1 / b_bias=0 / direct=3 / weightb=1 / open_gop=0 / weightp=2 / keyint=240 / keyint_min=22 / scenecut=40 / intra_refresh=0 / rc_lookahead=40 / rc=2pass / mbtree=1 / bitrate=1860 / ratetol=1.0 / qcomp=0.60 / qpmin=10 / qpmax=69 / qpstep=4 / cplxblur=20.0 / qblur=0.5 / ip_ratio=1.40 / aq=1:1.00
Default : Да
Forced : Нет

Аудио
Идентификатор : 2
Формат : AC-3
Формат/Информация : Audio Coding 3
Расширение режима : CM (complete main)
Идентификатор кодека : A_AC3
Продолжительность : 1 ч. 29 м.
Вид битрейта : Постоянный
Битрейт : 448 Кбит/сек
Каналы : 6 каналов
Расположение каналов : Front: L C R, Side: L R, LFE
Частота : 48,0 КГц
Битовая глубина : 16 бит
Метод сжатия : С потерями
Размер потока : 288 Мбайт (19%)
Заголовок : Профессиональный (многоголосый закадровый)
Язык : Russian
Default : Да
Forced : Нет





   Похожие торренты   Торрент   Размер 
В этой теме нет новых непрочитанных сообщений. Подземелье драконов / Dungeons & Dragons (2000) BDRip 1080 от SuperMin

62 | 9

7.63 ГБ

В этой теме нет новых непрочитанных сообщений. Подземелье драконов 2: Источник могущества / Dungeons & Dragons: Wrath of the Dragon God (2005) BDRemux 1080p

40 | 9

17.45 ГБ

В этой теме нет новых непрочитанных сообщений. Пир драконов / Dragons Feast (2012) BDRip 1080p от Ash61 | 3D-Video | halfOU | P1

59 | 62

6.42 ГБ

В этой теме нет новых непрочитанных сообщений. Nat Geo Wild: Пир драконов / Dragons Feast (2012) HDTVRip от Leo.pard | D

0 | 1

700.45 МБ

В этой теме нет новых непрочитанных сообщений. Nat Geo Wild: Пир драконов / Dragons Feast (2012) HDTVRip-AVC от Leo.pard | D

0 | 1

700.51 МБ

В этой теме нет новых непрочитанных сообщений. Охотники на драконов / Chasseurs de dragons (2008) BDRip 720p от Leonardo and Scarabey | Лицензия

138 | 20

2.73 ГБ

В этой теме нет новых непрочитанных сообщений. Вечеринка мертвых 2: Книга теней / Kopusu pati: Book of Shadows / Corpse Party: Book of Shadows (2016) BDRip 1080p | L2

24 | 4

8.05 ГБ




Вы не можете начинать темы
Вы не можете отвечать на сообщения
Вы не можете редактировать свои сообщения
Вы не можете удалять свои сообщения
Вы не можете добавлять вложения

Перейти:  
 Вход
ppkBB3cker v.2 © 2008-2014 @ PPK
[ Time : 0.032s | 16 Queries | GZIP : Off ]

cron