img image001 image001 image001 image001 image001 image001 image001 image001 image001 image001 image001 image001 image001 image001 image001 image001

Planets Sun Sun Sun
Статистика раздачи
Автор: Снежана | Размер: 747.85 МБ | Добавлен: 06 дек 2018
Раздают: 26    Качают: 0
Скачать торрент
Скачать торрент
Описание торрента

СообщениеДобавлено: 06 дек 2018 

Шёпот / Whispers


Перевод: Любительский (одноголосый)datynet; перевод: Куценко, субтитры: отсутствуют
Формат: WEBDLRip, AVI, XviD, MP3
Страна: Великобритания
Режиссер: Тамми Саттон / Tammi Sutton
Жанр: ужасы, триллер, мистика, драма
Продолжительность: 01:29:22
Год выпуска: 2015
В ролях: Барбара Неделякова, Дайан Голднер, Кили Хэзелл, Крэйг Риз, Линн Лаури, Рамон Эстевез, Уилльям Миллсап, Фил Блумберг, Лилия Джонсон, Лейла Геллан, Трэйси Бакли, Эмма Джейкобс, Нина Кейт, Харрисон Кейд, Джон Гулагер, Элисса Даулинг, Эйлин Дитц.
Описание: Молодая пара, скорбя о недавней смерти своей дочери, переезжает в сельскую местность, где им не дает покоя их пережитая трагедия, преследующий зловещий призрак и мрачность потустороннего мира.



Видео: 688x384 (1.79:1), 25 fps, XviD build 73 ~1048 kbps avg, 0.16 bit/pixel
Аудио: 48 kHz, MPEG Layer 3, 2 ch, ~128.00 kbps avg
Доп. информация: 3 номинации:
RIP Horror Film Festival 2015




General
Complete name : Whispers.2015.WEB-DLRip.avi
Format : AVI
Format/Info : Audio Video Interleave
File size : 748 MiB
Duration : 1 h 28 min
Overall bit rate : 1 186 kb/s
Writing application : VirtualDubMod 1.5.10.3 (build 2550/release)
Writing library : VirtualDub build 35491/release

Video
ID : 0
Format : MPEG-4 Visual
Format profile : Advanced Simple@L5
Format settings, BVOP : 1
Format settings, QPel : No
Format settings, GMC : No warppoints
Format settings, Matrix : Custom
Codec ID : XVID
Codec ID/Hint : XviD
Duration : 1 h 28 min
Bit rate : 1 048 kb/s
Width : 688 pixels
Height : 384 pixels
Display aspect ratio : 16:9
Frame rate : 25.000 FPS
Color space : YUV
Chroma subsampling : 4:2:0
Bit depth : 8 bits
Scan type : Progressive
Compression mode : Lossy
Bits/(Pixel*Frame) : 0.159
Stream size : 661 MiB (88%)
Writing library : XviD 73

Audio
ID : 1
Format : MPEG Audio
Format version : Version 1
Format profile : Layer 3
Codec ID : 55
Codec ID/Hint : MP3
Duration : 1 h 28 min
Bit rate mode : Constant
Bit rate : 128 kb/s
Channel(s) : 2 channels
Sampling rate : 48.0 kHz
Compression mode : Lossy
Stream size : 80.7 MiB (11%)
Alignment : Aligned on interleaves
Interleave, duration : 40 ms (1.00 video frame)
Interleave, preload duratio : 504 ms
Writing library : LAME3.99r
Encoding settings : -m s -V 4 -q 2 -lowpass 17 -b 128





















   Похожие торренты   Торрент   Размер 
В этой теме нет новых непрочитанных сообщений. Похоть / Lyst (Северин Эскеланд / Severin Eskeland) [2017, ужасы, мистика, триллер, WEBDLRip-AVC] VO / Мистика

8 | 0

1.41 ГБ

В этой теме нет новых непрочитанных сообщений. Кровные братья / The Divine Tragedies (Хосе Прендес) [2015, ужасы, триллер, драма, WEBDLRip] MVO / Мистика

2 | 0

1.44 ГБ

В этой теме нет новых непрочитанных сообщений. Сомния / Before I Wake (Майк Флэнеган) [2016, ужасы, мистика, триллер, драма, детектив, BDRip] DUB / Мистика

54 | 1

2.1 ГБ

В этой теме нет новых непрочитанных сообщений. Травма / Trauma (Лусио А. Рохас) [2017, ужасы, боевик, триллер, драма, WEBDLRip] MVO / Мистика

25 | 0

1.37 ГБ

В этой теме нет новых непрочитанных сообщений. Останься со мной / The Keeping Hours (Карен Монкрифф) [2017, ужасы, триллер, драма, мелодрама, WEBDLRip] MVO / Мистика

1 | 5

1.29 ГБ

В этой теме нет новых непрочитанных сообщений. От этого песок становится красным / It Stains the Sands Red (Колин Минихан) [2016, ужасы, триллер, драма, WEBDLRip] VO / Мистика

14 | 0

1.37 ГБ

В этой теме нет новых непрочитанных сообщений. Дьяволица / Люциферина / Luciferina (Гонсало Кальзада / Gonzalo Calzada) [2018, ужасы, мистика, WEBDLRip-AVC] VO / Мистика

157 | 1

1.57 ГБ




Вы не можете начинать темы
Вы не можете отвечать на сообщения
Вы не можете редактировать свои сообщения
Вы не можете удалять свои сообщения
Вы не можете добавлять вложения

Перейти:  
 Вход
ppkBB3cker v.2 © 2008-2014 @ PPK
[ Time : 0.021s | 16 Queries | GZIP : Off ]

cron