img image001 image001 image001 image001 image001 image001 image001 image001 image001 image001 image001 image001 image001 image001 image001 image001

Planets Sun Sun Sun
Статистика раздачи
Автор: Снежана | Размер: 2.53 ГБ | Добавлен: 06 дек 2018
Раздают: 42    Качают: 0
Скачать торрент
Скачать торрент
Описание торрента

СообщениеДобавлено: 06 дек 2018 

Холод в июле / Cold in July


Перевод: Авторский (одноголосый) М.Яроцкий, Профессиональный (дублированный), субтитры: отсутствуют
Формат: BDRip, AVI, XviD, AC3
Страна: США, Франция
Режиссер: Джим Микл
Жанр: триллер, криминал, драма
Продолжительность: 01:50:02
Год выпуска: 2014

В ролях: Майкл С. Холл, Уайатт Расселл, Дон Джонсон, Сэм Шепард, Билл Сейдж, Ник Дамичи, Тим Лайчик, Лэнни Флаэрти

Описание: Ричард Дэйн, тихий и безобидный мужчина, случайно застрелил забравшегося в его дом грабителя. Полиция опознала в убитом давно находящегося в розыске преступника, труп забрали и быстро похоронили. Однако вскоре появляется отец погибшего, Бен Рассел, живущий по принципу «око за око». И теперь Дэйну приходится защищать себя и своего ребенка. А вскоре в полицейском участке на доске с фотографиями разыскиваемых преступников он видит знакомую фамилию Рассел, но абсолютно незнакомое лицо. Полицейские подставили его или произошла трагическая ошибка? Вместе с Беном и его другом, частным детективом Джимом, он начинает нешуточное сражение за торжество справедливости.



Видео: 720x304 (2,35:1), 23,976 fps, XviD build 65 ~1980 kbps avg, 0.377 bit/pixel
Аудио #1: Русский: 48 kHz, AC3 Dolby Digital, 3/2 (L,C,R) + L R, LFE ch, 448 kbps [Авторский (одноголосый), Михаил Яроцкий]
Аудио #2: Русский: 48 kHz, AC3 Dolby Digital, 3/2 (L,C,R) + L R, LFE ch, 384 kbps [Профессиональный (дублированный)]
Аудио #3: Английский: 48 kHz, AC3 Dolby Digital, 3/2 (L,C,R) + L R, LFE ch, 448 kbps [Оригинал]
Релиз-группа:
Общее
Полное имя : D:\VIDEO\Мои переводы\Cold in July.2014.BDRip.AVO.Kyberpunk.avi
Формат : AVI
Формат/Информация : Audio Video Interleave
Профиль формата : OpenDML
Размер файла : 2,53 Гбайт
Продолжительность : 1 ч. 50 м.
Общий поток : 3281 Кбит/сек
Название фильма : Холод в июле / Cold in July (2014) BDRip
Режиссёр : yaroslaigor
Жанр : триллер, криминал, драма
Программа кодирования : VirtualDubMod 1.5.10.2 (build 2540/release)
Библиотека кодирования : VirtualDubMod build 2540/release
Авторское право : HQCLUB
Примечание : 04.09.2017

Видео
Идентификатор : 0
Формат : MPEG-4 Visual
Профиль формата : Advanced Simple@L5
Настройки формата : BVOP1 / Custom Matrix
Параметр BVOP формата : 1
Параметр QPel формата : Нет
Параметр GMC формата : Без точки перехода
Параметр матрицы формата : Выборочная
Идентификатор кодека : XVID
Идентификатор кодека/Подсказка : XviD
Продолжительность : 1 ч. 50 м.
Битрейт : 1980 Кбит/сек
Ширина : 720 пикселей
Высота : 304 пикселя
Соотношение сторон : 2,35:1
Частота кадров : 23,976 (24000/1001) кадра/сек
Цветовое пространство : YUV
Субдискретизация насыщенности : 4:2:0
Битовая глубина : 8 бит
Тип развёртки : Прогрессивная
Метод сжатия : С потерями
Бит/(Пиксели*Кадры) : 0.377
Размер потока : 1,52 Гбайт (60%)
Библиотека кодирования : XviD 65

Аудио #1
Идентификатор : 1
Формат : AC-3
Формат/Информация : Audio Coding 3
Коммерческое название : Dolby Digital
Идентификатор кодека : 2000
Продолжительность : 1 ч. 50 м.
Вид битрейта : Постоянный
Битрейт : 448 Кбит/сек
Каналы : 6 каналов
Channel layout : L R C LFE Ls Rs
Частота : 48,0 КГц
Частота кадров : 31,250 кадров/сек (1536 SPF)
Битовая глубина : 16 бит
Метод сжатия : С потерями
Размер потока : 353 Мбайт (14%)
Выравнивание : Разделение по промежуткам
Продолжительность промежутка : 42 мс. (1,00 видеокадр)
Время предзагрузки промежутка : 500 мс.
ServiceKind/String : Complete Main

Аудио #2
Идентификатор : 2
Формат : AC-3
Формат/Информация : Audio Coding 3
Коммерческое название : Dolby Digital
Идентификатор кодека : 2000
Продолжительность : 1 ч. 50 м.
Вид битрейта : Постоянный
Битрейт : 384 Кбит/сек
Каналы : 6 каналов
Channel layout : L R C LFE Ls Rs
Частота : 48,0 КГц
Частота кадров : 31,250 кадров/сек (1536 SPF)
Битовая глубина : 16 бит
Метод сжатия : С потерями
Размер потока : 302 Мбайт (12%)
Выравнивание : Разделение по промежуткам
Продолжительность промежутка : 42 мс. (1,00 видеокадр)
Время предзагрузки промежутка : 500 мс.
ServiceKind/String : Complete Main

Аудио #3
Идентификатор : 3
Формат : AC-3
Формат/Информация : Audio Coding 3
Коммерческое название : Dolby Digital
Идентификатор кодека : 2000
Продолжительность : 1 ч. 50 м.
Вид битрейта : Постоянный
Битрейт : 448 Кбит/сек
Каналы : 6 каналов
Channel layout : L R C LFE Ls Rs
Частота : 48,0 КГц
Частота кадров : 31,250 кадров/сек (1536 SPF)
Битовая глубина : 16 бит
Метод сжатия : С потерями
Размер потока : 353 Мбайт (14%)
Выравнивание : Разделение по промежуткам
Продолжительность промежутка : 42 мс. (1,00 видеокадр)
Время предзагрузки промежутка : 500 мс.
ServiceKind/String : Complete Main











   Похожие торренты   Торрент   Размер 
В этой теме нет новых непрочитанных сообщений. Холод в июле / Cold in July (Джим Микл) [2014, триллер, криминал, драма, BDRip] DUB

74 | 0

2.19 ГБ

В этой теме нет новых непрочитанных сообщений. Холод в июле / Cold in July (2014) BDRip от Twi7ter | D | Лицензия

2248 | 114

1.47 ГБ

В этой теме нет новых непрочитанных сообщений. Холод в июле / Cold in July (2014) BDRip-AVC от HELLYWOOD | Лицензия

93 | 6

2.18 ГБ

В этой теме нет новых непрочитанных сообщений. Холод в июле / Cold in July (2014) BDRip-AVC от Leo.pard and Scarabey | L2

233 | 30

744.67 МБ

В этой теме нет новых непрочитанных сообщений. Холод в июле / Cold in July (2014) BDRip-AVC | L2, D | Чистый звук

713 | 42

3.05 ГБ

В этой теме нет новых непрочитанных сообщений. Холод в июле / Cold in July (2014) BDRip от HQCLUB | D | Лицензия

8 | 0

2.18 ГБ

В этой теме нет новых непрочитанных сообщений. Холод в июле / Cold in July (2014) BDRip от Twi7ter | D | Чистый звук

1698 | 129

1.47 ГБ




Вы не можете начинать темы
Вы не можете отвечать на сообщения
Вы не можете редактировать свои сообщения
Вы не можете удалять свои сообщения
Вы не можете добавлять вложения

Перейти:  
 Вход
ppkBB3cker v.2 © 2008-2014 @ PPK
[ Time : 0.027s | 16 Queries | GZIP : Off ]

cron