img image001 image001 image001 image001 image001 image001 image001 image001 image001 image001 image001 image001 image001 image001 image001 image001

Planets Sun Sun Sun
Статистика раздачи
Автор: Снежана | Размер: 2.39 ГБ | Добавлен: 06 дек 2018
Раздают: 41    Качают: 0
Скачать торрент
Скачать торрент
Описание торрента

СообщениеДобавлено: 06 дек 2018 

Козырные Тузы 2: Бал Смерти [Расширенная версия] / Бал убийц / Smokin' Aces 2: Assassins' Ball [UNRATED]


Перевод: Авторский (одноголосый) М.Яроцкий, субтитры: русские, английские
Формат: BDRip-AVC, MKV, H.264, AC3
Страна: США, Канада
Режиссер: П. Дж. Пеше
Жанр: боевик, комедия, криминал, триллер
Продолжительность: 01:28:02
Год выпуска: 2010

В ролях: Том Беренджер, Клейн Кроуфорд, Томми Флэнаган, Мори Стерлинг, Марта Хигареда, Кристофер Майкл Холли, Эрни Хадсон, Майкл Паркс, Отем Ризер, Винни Джонс

Описание: ФБР узнаёт о готовящемся убийстве Вальтера Вида. Команда ненормальных наёмных убийц направлена загадочным мистером Леко за огромное вознаграждение. Среди наёмников изобретательная красавица, убивающая своих жертв весьма оригинальным способом, смертоносный мастер перевоплощения и много других колоритных персонажей.



Видео: 1024x576 (16:9), 23,976 fps, MPEG4 AVC (x264), ~2999 avg, 0.212 bit/pixel
Аудио #1: Русский: 48 kHz, AC3 Dolby Digital, 3/2 (L,C,R) + L R, LFE ch, 448 kbps [Авторский (одноголосый), Михаил Яроцкий]
Аудио #2: Английский: 48 kHz, AC3 Dolby Digital, 3/2 (L,C,R) + L R, LFE ch, 448 kbps [Оригинал]
Релиз-группа:
Общее
Уникальный идентификатор : 207339013862607200072944442411565709723 (0x9BFC0AA29CD41ED3BF677014C44FF99B)
Полное имя : D:\VIDEO\Мои переводы\Smokin Aces 2.2010.BDRip-AVC.kyberpunk.mkv
Формат : Matroska
Версия формата : Version 4
Размер файла : 2,39 Гбайт
Продолжительность : 1 ч. 28 м.
Общий поток : 3891 Кбит/сек
Дата кодирования : UTC 2018-07-15 11:20:49
Программа кодирования : mkvmerge v8.3.0 ('Over the Horizon') 64bit
Библиотека кодирования : libebml v1.3.1 + libmatroska v1.4.2

Видео
Идентификатор : 1
Формат : AVC
Формат/Информация : Advanced Video Codec
Профиль формата :
Настройки формата : CABAC / 8 Ref Frames
Параметр CABAC формата : Да
Параметр RefFrames формата : 8 кадров
Идентификатор кодека : V_MPEG4/ISO/AVC
Продолжительность : 1 ч. 28 м.
Битрейт : 2999 Кбит/сек
Ширина : 1024 пикселя
Высота : 576 пикселей
Соотношение сторон : 16:9
Режим частоты кадров : Постоянный
Частота кадров : 23,976 кадра/сек
Цветовое пространство : YUV
Субдискретизация насыщенности : 4:2:0
Битовая глубина : 8 бит
Тип развёртки : Прогрессивная
Бит/(Пиксели*Кадры) : 0.212
Размер потока : 1,84 Гбайт (77%)
Заголовок : Kozyrnye.tuzy.2.Bal.smerti.2010.x264.BDRip.(AVC)-Kinozal.TV-AVC.mkv - Release for Kinozal.TV by vvmon
Библиотека кодирования : x264 core 98 r1649 c54c47d
Настройки программы : cabac=1 / ref=8 / deblock=1:-2:-2 / analyse=0x3:0x133 / me=umh / subme=10 / psy=1 / psy_rd=1.00:0.10 / mixed_ref=1 / me_range=48 / chroma_me=1 / trellis=2 / 8x8dct=1 / cqm=0 / deadzone=21,11 / fast_pskip=0 / chroma_qp_offset=-3 / threads=3 / sliced_threads=0 / nr=0 / decimate=1 / interlaced=0 / constrained_intra=0 / bframes=8 / b_pyramid=2 / b_adapt=2 / b_bias=0 / direct=3 / weightb=1 / weightp=2 / keyint=250 / keyint_min=23 / scenecut=40 / intra_refresh=0 / rc=2pass / mbtree=0 / bitrate=2999 / ratetol=1.0 / qcomp=0.60 / qpmin=10 / qpmax=51 / qpstep=4 / cplxblur=20.0 / qblur=0.5 / ip_ratio=1.40 / pb_ratio=1.30 / aq=1:1.00
Язык : English
Default : Да
Forced : Нет

Аудио #1
Идентификатор : 2
Формат : AC-3
Формат/Информация : Audio Coding 3
Коммерческое название : Dolby Digital
Идентификатор кодека : A_AC3
Продолжительность : 1 ч. 28 м.
Вид битрейта : Постоянный
Битрейт : 448 Кбит/сек
Каналы : 6 каналов
Channel layout : L R C LFE Ls Rs
Частота : 48,0 КГц
Частота кадров : 31,250 кадров/сек (1536 SPF)
Битовая глубина : 16 бит
Метод сжатия : С потерями
Размер потока : 282 Мбайт (12%)
Заголовок : AVO М.Яроцкий
Язык : Russian
ServiceKind/String : Complete Main
Default : Да
Forced : Да

Аудио #2
Идентификатор : 3
Формат : AC-3
Формат/Информация : Audio Coding 3
Коммерческое название : Dolby Digital
Идентификатор кодека : A_AC3
Продолжительность : 1 ч. 28 м.
Вид битрейта : Постоянный
Битрейт : 448 Кбит/сек
Каналы : 6 каналов
Channel layout : L R C LFE Ls Rs
Частота : 48,0 КГц
Частота кадров : 31,250 кадров/сек (1536 SPF)
Битовая глубина : 16 бит
Метод сжатия : С потерями
Размер потока : 282 Мбайт (12%)
Заголовок : Оригинал
Язык : English
ServiceKind/String : Complete Main
Default : Нет
Forced : Нет

Текст #1
Идентификатор : 4
Формат : UTF-8
Идентификатор кодека : S_TEXT/UTF8
Идентификатор кодека/Информация : UTF-8 Plain Text
Продолжительность : 1 ч. 19 м.
Битрейт : 116 бит/сек
ElementCount : 1012
Размер потока : 67,6 Кбайт (0%)
Заголовок : Полные
Язык : Russian
Default : Нет
Forced : Нет

Текст #2
Идентификатор : 5
Формат : UTF-8
Идентификатор кодека : S_TEXT/UTF8
Идентификатор кодека/Информация : UTF-8 Plain Text
Продолжительность : 1 ч. 19 м.
Битрейт : 70 бит/сек
ElementCount : 1096
Размер потока : 40,9 Кбайт (0%)
Язык : English
Default : Нет
Forced : Нет

Меню
00:00:00.000 : en:Chapter 01
00:03:28.832 : en:Chapter 02
00:09:54.551 : en:Chapter 03
00:13:14.167 : en:Chapter 04
00:18:14.218 : en:Chapter 05
00:23:19.147 : en:Chapter 06
00:26:56.906 : en:Chapter 07
00:30:19.776 : en:Chapter 08
00:34:58.387 : en:Chapter 09
00:38:41.819 : en:Chapter 10
00:42:05.814 : en:Chapter 11
00:44:19.406 : en:Chapter 12
00:47:53.286 : en:Chapter 13
00:51:27.125 : en:Chapter 14
00:53:37.547 : en:Chapter 15
00:58:15.992 : en:Chapter 16
01:03:15.666 : en:Chapter 17
01:08:55.881 : en:Chapter 18
01:14:47.608 : en:Chapter 19
01:21:39.019 : en:Chapter 20










   Похожие торренты   Торрент   Размер 
В этой теме нет новых непрочитанных сообщений. Козырные тузы / Smokin' Aces (2006) BDRip 1080p

127 | 14

7.94 ГБ

В этой теме нет новых непрочитанных сообщений. Козырные тузы / Smokin' Aces (2006) BDRip-AVC от Just TeMa | A, D

39 | 11

4.3 ГБ

В этой теме нет новых непрочитанных сообщений. Козырные тузы / Smokin' Aces (2006) HDRip-AVC | D

114 | 21

746.09 МБ

В этой теме нет новых непрочитанных сообщений. Козырные тузы / Smokin' Aces (2006) HDRip от Scarabey | D

801 | 34

1.45 ГБ

В этой теме нет новых непрочитанных сообщений. Козырные тузы / Smokin' Aces (2006) HDRip | Гаврилов

249 | 10

1.46 ГБ

В этой теме нет новых непрочитанных сообщений. Козырные тузы / Smokin' Aces (2006) WEB-DLRip-AVC | D | Open Matte

8 | 0

2.33 ГБ

В этой теме нет новых непрочитанных сообщений. Козырные тузы / Smokin' Aces (2006) WEB-DL 1080p | D, A | Open Matte

36 | 8

14.14 ГБ




Вы не можете начинать темы
Вы не можете отвечать на сообщения
Вы не можете редактировать свои сообщения
Вы не можете удалять свои сообщения
Вы не можете добавлять вложения

Перейти:  
 Вход
ppkBB3cker v.2 © 2008-2014 @ PPK
[ Time : 0.021s | 16 Queries | GZIP : Off ]

cron