img image001 image001 image001 image001 image001 image001 image001 image001 image001 image001 image001 image001 image001 image001 image001 image001

Planets Sun Sun Sun
Статистика раздачи
Автор: Снежана | Размер: 1.46 ГБ | Добавлен: 04 дек 2018
Раздают: 21    Качают: 2
Скачать торрент
Скачать торрент
Описание торрента

СообщениеДобавлено: 04 дек 2018 

Возвращение живых мертвецов 2 / Return of the Living Dead Part II


Перевод: Профессиональный (многоголосый закадровый), субтитры: отсутствуют
Формат: HDRip-AVC, MKV, H.264, AC3
Страна: США
Режиссер: Кен Видерхорн
Жанр: ужасы, комедия
Продолжительность: 01:29:16
Год выпуска: 1988
В ролях: Майкл Кенуорти, Тор Ван Линген, Джейсон Хоган, Джеймс Карен, Том Мэтьюз, Сюзанн Снайдер, Марша Дитлайн, Сюзэнн Снайдер, Джонатан Терри, Дэна Эшбрук, Сэлли Смайт, Аллан Траутман, Дон Максвелл, Рейнолд Синдрич, Филип Брунс, Митч Пиледжи, Артуро Бонилла, Терренс Риггинс, Джеймс МакИнтайр, Ларри Николас, Форрест Дж Экерман, Дуглас Бенсон, Дэвид Эби, Николас Эрнандез, Дерек Лоугрэн, Энни Маршалл, Ричард Мур, Стив Нювенхейм, Брайан Пек

Описание: Мертвые не любят «прохлаждаться» под землёй, в особенности в фильмах ужасов. И вегетарианская диета им совсем не подходит. Именно поэтому кровожадные зомби решают в очередной раз полакомиться человеческими мозгами. Новое поколение зомби появилось на свет из-за аварии армейского грузовика, перевозившего нервно-паралитический газ. Зловещие зелёные испарения доползли до местного кладбища и оживили сотни проголодавшихся покойников, которые с энтузиазмом вышли на охоту! Ожившие мертвецы решают устроить — пир, «приготовив», «в качестве «главного блюда», беспечных жителей местного городка! Мёртвые очень не любят живых, и их месть людям будет беспощадна и ужасна!



Видео: 1024x560 (1.85:1), 23.976 fps, AVC MPEG4 (x264), , ~2145 kbps avg, 0.156 bit/pixel
Аудио: 48 kHz, AC3 Dolby Digital, 2 (L,R) ch, ~192.00 kbps avg
General
Unique ID : 189556933607238300967947421386866751942 (0x8E9B5663C7FCF9C5B5DF83D28508F9C6)
Complete name : C:\Users\123\Desktop\Возвращение живых мертвецов 2.1988_[tfile.ru].mkv
Format : Matroska
Format version : Version 4 / Version 2
File size : 1.46 GiB
Duration : 1h 29mn
Overall bit rate mode : Constant
Overall bit rate : 2 338 Kbps
Encoded date : UTC 2017-04-27 11:46:09
Writing application : Lavf56.36.100
Writing library : Lavf56.36.100

Video
ID : 2
Format : AVC
Format/Info : Advanced Video Codec
Format profile :
Format settings, CABAC : Yes
Format settings, ReFrames : 2 frames
Format settings, GOP : M=1, N=25
Codec ID : V_MPEG4/ISO/AVC
Duration : 1h 29mn
Bit rate mode : Constant
Bit rate : 2 145 Kbps
Width : 1 024 pixels
Height : 560 pixels
Display aspect ratio : 1.85:1
Frame rate mode : Constant
Frame rate : 23.976 fps
Color space : YUV
Chroma subsampling : 4:2:0
Bit depth : 8 bits
Scan type : Progressive
Bits/(Pixel*Frame) : 0.156
Stream size : 1.31 GiB (90%)
Language : English
Default : Yes
Forced : No

Audio
ID : 1
Format : AC-3
Format/Info : Audio Coding 3
Mode extension : CM (complete main)
Format settings, Endianness : Big
Codec ID : A_AC3
Duration : 1h 29mn
Bit rate mode : Constant
Bit rate : 192 Kbps
Channel(s) : 2 channels
Channel positions : Front: L R
Sampling rate : 48.0 KHz
Bit depth : 32 bits
Compression mode : Lossy
Stream size : 123 MiB (8%)
Title : MVO Премьер Видео Фильм
Language : Russian
Default : Yes
Forced : No












   Похожие торренты   Торрент   Размер 
В этой теме нет новых непрочитанных сообщений. Возвращение живых мертвецов 2 / The Return of the Living Dead Part II (1988) HDRip от New-Team | P

9 | 6

1.46 ГБ

В этой теме нет новых непрочитанных сообщений. Возвращение живых мертвецов 2 / The Return of the Living Dead Part II (1988) HDRip от New-Team

6 | 6

746.25 МБ

В этой теме нет новых непрочитанных сообщений. Возвращение живых мертвецов / The Return of the Living Dead (Дэн О’Бэннон) [1985, ужасы, комедия , HDRip-AVC] MVO

15 | 1

1.46 ГБ

В этой теме нет новых непрочитанных сообщений. Возвращение живых мертвецов 2 / The Return of the Living Dead Part II (1988) WEB-DLRip-AVC | P, A

2 | 7

1.45 ГБ

В этой теме нет новых непрочитанных сообщений. Возвращение живых мертвецов 2 / The Return of the Living Dead Part II (1988) WEB-DLRip-AVC | P

2 | 0

744.3 МБ

В этой теме нет новых непрочитанных сообщений. Возвращение живых мертвецов 2 / The Return of the Living Dead Part II (1988) WEB-DL 1080p

0 | 0

3.95 ГБ

В этой теме нет новых непрочитанных сообщений. Возвращение живых мертвецов 2 / Return of the Living Dead: Part II (1988) WEBRip 1080p | P, A

5 | 1

9.62 ГБ




Вы не можете начинать темы
Вы не можете отвечать на сообщения
Вы не можете редактировать свои сообщения
Вы не можете удалять свои сообщения
Вы не можете добавлять вложения

Перейти:  
 Вход
ppkBB3cker v.2 © 2008-2014 @ PPK
[ Time : 0.036s | 17 Queries | GZIP : Off ]

cron