img image001 image001 image001 image001 image001 image001 image001 image001 image001 image001 image001 image001 image001 image001 image001 image001

Planets Sun Sun Sun
Статистика раздачи
Автор: Снежана | Размер: 1.46 ГБ | Добавлен: 04 дек 2018
Раздают: 15    Качают: 1
Скачать торрент
Скачать торрент
Описание торрента

СообщениеДобавлено: 04 дек 2018 

Возвращение живых мертвецов / The Return of the Living Dead


Перевод: Профессиональный (многоголосый закадровый), субтитры: отсутствуют
Формат: HDRip-AVC, MKV, H.264, AC3
Страна: США
Режиссер: Дэн О’Бэннон
Жанр: ужасы, комедия
Продолжительность: 01:30:30
Год выпуска: 1985
В ролях: Клу Гулагер, Джеймс Карен, Дон Кэлфа, Том Мэтьюз, Беверли Рэндольф, Джон Филбин, Джуэл Шепард, Мигель А. Нуньес мл., Брайан Пек, Линни Куигли

Описание: На захолустном медицинском складе хранились контейнеры с зомби, по ошибке попавшие туда много лет назад. В один далеко не прекрасный день герметичность упаковки была нарушена, ядовитый газ вырвался наружу, и вот уже мертвецы с соседнего кладбища покидают свое тихое пристанище, чтобы полакомиться мозгом живых…



Видео: 1024x560 (1.85:1), 23.976 fps, AVC MPEG4 (x264), , ~2115 kbps avg, 0.154 bit/pixel
Аудио: 48 kHz, AC3 Dolby Digital, 2 (L,R) ch, ~192.00 kbps avg
General
Unique ID : 162326780571871482287300186044076532690 (0x7A1F00310441909253D33C82ED1223D2)
Complete name : C:\Users\123\Desktop\Возвращение живых мертвецов.1985_[tfile.ru].mkv
Format : Matroska
Format version : Version 4 / Version 2
File size : 1.46 GiB
Duration : 1h 30mn
Overall bit rate mode : Constant
Overall bit rate : 2 307 Kbps
Movie name : Release by Leonardo for leohd59.ru
Encoded date : UTC 2018-03-24 22:03:04
Writing application : Lavf56.36.100
Writing library : Lavf56.36.100

Video
ID : 2
Format : AVC
Format/Info : Advanced Video Codec
Format profile :
Format settings, CABAC : Yes
Format settings, ReFrames : 2 frames
Format settings, GOP : M=1, N=25
Codec ID : V_MPEG4/ISO/AVC
Duration : 1h 30mn
Bit rate mode : Constant
Bit rate : 2 115 Kbps
Width : 1 024 pixels
Height : 560 pixels
Display aspect ratio : 1.85:1
Frame rate mode : Constant
Frame rate : 23.976 fps
Color space : YUV
Chroma subsampling : 4:2:0
Bit depth : 8 bits
Scan type : Progressive
Bits/(Pixel*Frame) : 0.154
Stream size : 1.31 GiB (90%)
Language : English
Default : Yes
Forced : No
DURATION : 01:30:30.050000000
NUMBER_OF_FRAMES : 130191
NUMBER_OF_BYTES : 7464730973
_STATISTICS_WRITING_APP : mkvmerge v8.3.0 ('Over the Horizon') 64bit
_STATISTICS_WRITING_DATE_UTC : 2018-03-24 22:03:04
_STATISTICS_TAGS : BPS DURATION NUMBER_OF_FRAMES NUMBER_OF_BYTES

Audio
ID : 1
Format : AC-3
Format/Info : Audio Coding 3
Mode extension : CM (complete main)
Format settings, Endianness : Big
Codec ID : A_AC3
Duration : 1h 30mn
Bit rate mode : Constant
Bit rate : 192 Kbps
Channel(s) : 2 channels
Channel positions : Front: L R
Sampling rate : 48.0 KHz
Bit depth : 32 bits
Compression mode : Lossy
Stream size : 124 MiB (8%)
Title : MVO Студия СВ-Дубль по заказу Медиа-Фильм
Language : Russian
Default : Yes
Forced : No
DURATION : 01:30:30.112000000
NUMBER_OF_FRAMES : 169691
NUMBER_OF_BYTES : 130322688
_STATISTICS_WRITING_APP : mkvmerge v8.3.0 ('Over the Horizon') 64bit
_STATISTICS_WRITING_DATE_UTC : 2018-03-24 22:03:04
_STATISTICS_TAGS : BPS DURATION NUMBER_OF_FRAMES NUMBER_OF_BYTES












   Похожие торренты   Торрент   Размер 
В этой теме нет новых непрочитанных сообщений. Возвращение живых мертвецов 2 / Return of the Living Dead Part II (Кен Видерхорн ) [1988, ужасы, комедия , HDRip-AVC] MVO

21 | 2

1.46 ГБ

В этой теме нет новых непрочитанных сообщений. Возвращение живых мертвецов / The Return of the Living Dead (1985) HDRip от Scarabey | P

35 | 4

1.44 ГБ

В этой теме нет новых непрочитанных сообщений. Возвращение живых мертвецов 3 / Return of the Living Dead 3 (Брайан Юзна ) [1993, ужасы, HDRip-AVC] MVO

11 | 0

1.46 ГБ

В этой теме нет новых непрочитанных сообщений. Возвращение живых мертвецов / The Return of the Living Dead (1985) BDRip | P2, A

41 | 8

827.19 МБ

В этой теме нет новых непрочитанных сообщений. Возвращение живых мертвецов / The Return of the Living Dead (1985) BDRip-AVC | P2

4 | 1

744.44 МБ

В этой теме нет новых непрочитанных сообщений. Возвращение живых мертвецов / The Return of the Living Dead (1985) BDRip | Remastered | A

19 | 9

1.45 ГБ

В этой теме нет новых непрочитанных сообщений. Возвращение живых мертвецов / The Return of the Living Dead (1985) BDRemux 1080p | Remastered | P, P2, A, L1

3 | 2

25.86 ГБ




Вы не можете начинать темы
Вы не можете отвечать на сообщения
Вы не можете редактировать свои сообщения
Вы не можете удалять свои сообщения
Вы не можете добавлять вложения

Перейти:  
 Вход
ppkBB3cker v.2 © 2008-2014 @ PPK
[ Time : 0.026s | 15 Queries | GZIP : Off ]

cron