img image001 image001 image001 image001 image001 image001 image001 image001 image001 image001 image001 image001 image001 image001 image001 image001

Planets Sun Sun Sun
Статистика раздачи
Автор: Снежана | Размер: 1.46 ГБ | Добавлен: 04 дек 2018
Раздают: 257    Качают: 16
Скачать торрент
Скачать торрент
Описание торрента

СообщениеДобавлено: 04 дек 2018 

Багровая мята / Peppermint


Перевод: Профессиональный (полное дублирование) iTunes, субтитры: отсутствуют
Формат: WEBDLRip-AVC, MKV, H.264, AC3
Страна: США, Гонконг
Режиссер: Пьер Морель
Жанр: боевик, триллер, драма
Продолжительность: 01:41:37
Год выпуска: 2018
В ролях: Дженнифер Гарнер, Джон Галлахер мл., Джон Ортис, Хуан Пабло Раба, Энни Айлонзех, Джефф Хефнер, Кэйли Флеминг, Эдди Шин, Метод Мэн, Тайсон Риттер

Описание: Когда система закрывает глаза на убийство ее семьи, она решает вершить справедливость сама: очистить город от преступников и продажных полицейских, чтобы отомстить за любимых. Ведь месть — это блюдо, которое подают холодным. Холодным, как мороженое со вкусом мяты, которое так любила ее единственная дочь.



Видео: 1024x432 (2.40:1), 23.976 fps, AVC MPEG4 (x264), , ~1670 kbps avg, 0.157 bit/pixel
Аудио: 48 kHz, AC3 Dolby Digital, 3/2 (L,C,R,l,r) + LFE ch, ~384 kbps
General
Unique ID : 7027866805912292230637296578774998848 (0x5498495ECAF9EB4B12690F48CCC9F40)
Complete name : C:\Users\123\Desktop\Peppermint.2018.WEB-DLRip-AVC_[tfile.ru].mkv
Format : Matroska
Format version : Version 4 / Version 2
File size : 1.46 GiB
Duration : 1h 41mn
Overall bit rate mode : Constant
Overall bit rate : 2 054 Kbps
Movie name : Peppermint 2018 from селезень
Encoded date : UTC 2018-12-02 20:26:22
Writing application : Lavf56.36.100
Writing library : Lavf56.36.100

Video
ID : 2
Format : AVC
Format/Info : Advanced Video Codec
Format profile :
Format settings, CABAC : Yes
Format settings, ReFrames : 2 frames
Format settings, GOP : M=1, N=25
Codec ID : V_MPEG4/ISO/AVC
Duration : 1h 41mn
Bit rate mode : Constant
Bit rate : 1 670 Kbps
Width : 1 024 pixels
Height : 432 pixels
Display aspect ratio : 2.40:1
Frame rate mode : Constant
Frame rate : 23.976 fps
Color space : YUV
Chroma subsampling : 4:2:0
Bit depth : 8 bits
Scan type : Progressive
Bits/(Pixel*Frame) : 0.157
Stream size : 1.16 GiB (79%)
Language : English
Default : Yes
Forced : No
DURATION : 01:41:37.556000000
NUMBER_OF_FRAMES : 146195
NUMBER_OF_BYTES : 3080687195
_STATISTICS_WRITING_APP : mkvmerge v29.0.0 ('Like It Or Not') 64-bit
_STATISTICS_WRITING_DATE_UTC : 2018-12-02 20:26:22
_STATISTICS_TAGS : BPS DURATION NUMBER_OF_FRAMES NUMBER_OF_BYTES

Audio
ID : 1
Format : AC-3
Format/Info : Audio Coding 3
Mode extension : CM (complete main)
Format settings, Endianness : Big
Codec ID : A_AC3
Duration : 1h 41mn
Bit rate mode : Constant
Bit rate : 384 Kbps
Channel(s) : 6 channels
Channel positions : Front: L C R, Side: L R, LFE
Sampling rate : 48.0 KHz
Bit depth : 32 bits
Compression mode : Lossy
Stream size : 279 MiB (19%)
Title : iTunes
Language : Russian
Default : Yes
Forced : No
DURATION : 01:41:37.536000000
NUMBER_OF_FRAMES : 190548
NUMBER_OF_BYTES : 292681728
_STATISTICS_WRITING_APP : mkvmerge v29.0.0 ('Like It Or Not') 64-bit
_STATISTICS_WRITING_DATE_UTC : 2018-12-02 20:26:22
_STATISTICS_TAGS : BPS DURATION NUMBER_OF_FRAMES NUMBER_OF_BYTES











   Похожие торренты   Торрент   Размер 
В этой теме нет новых непрочитанных сообщений. Багровая мята / Peppermint (Пьер Морель ) [2018, боевик, триллер, драма , WEBDLRip] DUB

452 | 26

1.46 ГБ

В этой теме нет новых непрочитанных сообщений. Багровая мята / Peppermint (Пьер Морель) [2018, драма, триллер, боевик, WEBDLRip] DUB

343 | 7

1.37 ГБ

В этой теме нет новых непрочитанных сообщений. Багровая мята / Peppermint (Пьер Морель ) [2018 , боевик, триллер, драма , HDRip] DUB

172 | 25

1.46 ГБ

В этой теме нет новых непрочитанных сообщений. 13-й район / Banlieue 13 (Пьер Морель) [2004, фантастика, боевик, триллер, LowHDRip] DUB / Боевики /Action

3 | 0

744.32 МБ

В этой теме нет новых непрочитанных сообщений. 13-й район / Banlieue 13 (Пьер Морель) [2004, фантастика, боевик, триллер, BDRip-AVC] 2xDUB (rus, eng) / Боевики /Action

3 | 0

1.46 ГБ

В этой теме нет новых непрочитанных сообщений. Золотой сон / Goldeun seulreombeo (Но Дон-сок) [2018, боевик, драма, триллер, WEBDLRip] MVO

15 | 0

1.52 ГБ

В этой теме нет новых непрочитанных сообщений. Сторонник / Dokjeon (Ли Хэ-ён) [2018, криминал, драма, боевик, триллер, WEBDLRip] MVO

7 | 0

1.35 ГБ




Вы не можете начинать темы
Вы не можете отвечать на сообщения
Вы не можете редактировать свои сообщения
Вы не можете удалять свои сообщения
Вы не можете добавлять вложения

Перейти:  
 Вход
ppkBB3cker v.2 © 2008-2014 @ PPK
[ Time : 0.024s | 17 Queries | GZIP : Off ]

cron