img image001 image001 image001 image001 image001 image001 image001 image001 image001 image001 image001 image001 image001 image001 image001 image001

Planets Sun Sun Sun
Статистика раздачи
Автор: Снежана | Размер: 2.18 ГБ | Добавлен: 04 дек 2018
Раздают: 189    Качают: 0
Скачать торрент
Скачать торрент
Описание торрента

СообщениеДобавлено: 04 дек 2018 

Рождественские хроники / The Christmas Chronicles


Перевод: Профессиональный (полное дублирование) Пифагор, субтитры: отсутствуют
Формат: WEBDLRip-AVC, MKV, H.264, AC3
Страна: США
Режиссер: Клэй Кэйтис
Жанр: фэнтези, комедия, приключения, семейный
Продолжительность: 01:44:27
Год выпуска: 2018
В ролях: Курт Рассел, Кимберли Уильямс-Пэйсли, Оливер Хадсон, Джуда Льюис, Ламорн Моррис, Дэрби Кэмп, Лорен Коллинз, Джереми Рэймонд, Мартин Роуч, Kayla Lakhani, Джефф Теравайнен, Ишан Моррис

Описание: В канун Рождества брат с сестрой - Кейт и Тедди Пирс - собираются заснять на видео появление Санты. Дерзкий замысел выливается в необыкновенное приключение, о котором дети не могли даже мечтать. Вместе с преданными эльфами и волшебными летающими оленями они помогают Санте спасти всеми любимый праздник.



Видео: 1024x560 (1.85:1), 23.976 fps, AVC MPEG4 (x264), , ~2225 kbps avg, 0.162 bit/pixel
Аудио #1: Русский:48 kHz, AC3 Dolby Digital, 3/2 (L,C,R,l,r) + LFE ch, ~384 kbps [Профессиональный (полное дублирование)]
Аудио #2: Английский:48 kHz, AC3 Dolby Digital, 3/2 (L,C,R,l,r) + LFE ch, ~384 kbps [Оригинал]
General
Unique ID : 185458695076589570629912743463099037137 (0x8B860BA1448289F0B890D38C0707F5D1)
Complete name : C:\Users\123\Desktop\The.Christmas.Chronicles.2018.WEB-DLRip-AVC_[tfile.ru].mkv
Format : Matroska
Format version : Version 4 / Version 2
File size : 2.18 GiB
Duration : 1h 44mn
Overall bit rate mode : Constant
Overall bit rate : 2 992 Kbps
Movie name : The Christmas Chronicles
Encoded date : UTC 2018-11-24 17:25:20
Writing application : mkvmerge v7.4.0 ('Circles') 64bit built on Dec 12 2014 12:19:56
Writing library : Lavf56.36.100

Video
ID : 1
Format : AVC
Format/Info : Advanced Video Codec
Format profile :
Format settings, CABAC : Yes
Format settings, ReFrames : 2 frames
Format settings, GOP : M=1, N=25
Codec ID : V_MPEG4/ISO/AVC
Duration : 1h 44mn
Bit rate mode : Constant
Bit rate : 2 225 Kbps
Width : 1 024 pixels
Height : 560 pixels
Display aspect ratio : 1.85:1
Frame rate mode : Constant
Frame rate : 23.976 fps
Color space : YUV
Chroma subsampling : 4:2:0
Bit depth : 8 bits
Scan type : Progressive
Bits/(Pixel*Frame) : 0.162
Stream size : 1.58 GiB (72%)
Language : English
Default : Yes
Forced : No
_STATISTICS_WRITING_APP : mkvmerge v8.5.0 ('Vanishing Act') 32bit
_STATISTICS_WRITING_DATE_UTC : 2018-11-24 17:25:20
_STATISTICS_TAGS : BPS DURATION NUMBER_OF_FRAMES NUMBER_OF_BYTES
DURATION : 01:44:27.296000000
NUMBER_OF_FRAMES : 195853
NUMBER_OF_BYTES : 300830208

Audio #1
ID : 2
Format : AC-3
Format/Info : Audio Coding 3
Mode extension : CM (complete main)
Format settings, Endianness : Big
Codec ID : A_AC3
Duration : 1h 44mn
Bit rate mode : Constant
Bit rate : 384 Kbps
Channel(s) : 6 channels
Channel positions : Front: L C R, Side: L R, LFE
Sampling rate : 48.0 KHz
Compression mode : Lossy
Stream size : 287 MiB (13%)
Title : Russian
Language : Russian
Default : No
Forced : No
_STATISTICS_WRITING_APP : mkvmerge v8.5.0 ('Vanishing Act') 32bit
_STATISTICS_WRITING_DATE_UTC : 2018-11-24 17:25:20
_STATISTICS_TAGS : BPS DURATION NUMBER_OF_FRAMES NUMBER_OF_BYTES
DURATION : 01:44:27.296000000
NUMBER_OF_FRAMES : 195853
NUMBER_OF_BYTES : 300830208

Audio #2
ID : 3
Format : AC-3
Format/Info : Audio Coding 3
Mode extension : CM (complete main)
Format settings, Endianness : Big
Codec ID : A_AC3
Duration : 1h 44mn
Bit rate mode : Constant
Bit rate : 384 Kbps
Channel(s) : 6 channels
Channel positions : Front: L C R, Side: L R, LFE
Sampling rate : 48.0 KHz
Compression mode : Lossy
Stream size : 287 MiB (13%)
Title : English
Language : English
Default : Yes
Forced : No
_STATISTICS_WRITING_APP : mkvmerge v8.5.0 ('Vanishing Act') 32bit
_STATISTICS_WRITING_DATE_UTC : 2018-11-24 17:25:20
_STATISTICS_TAGS : BPS DURATION NUMBER_OF_FRAMES NUMBER_OF_BYTES
DURATION : 01:44:27.303000000
NUMBER_OF_FRAMES : 150265
NUMBER_OF_BYTES : 1740593440












   Похожие торренты   Торрент   Размер 
В этой теме нет новых непрочитанных сообщений. Рождественские хроники / The Christmas Chronicles (Клэй Кэйтис) [2018, фэнтези, комедия, приключения, семейный, WEBRip] DUB

230 | 5

1.46 ГБ

В этой теме нет новых непрочитанных сообщений. Ужастики 2: Беспокойный Хэллоуин / Goosebumps 2: Haunted Halloween (Эри Сандел) [2018, ужасы, фэнтези, комедия, приключения, семейный, WEBDLRip] DUB

3789 | 307

1.37 ГБ

В этой теме нет новых непрочитанных сообщений. Наследники 2 / Descendants 2 (Кенни Ортега) [2017, семейный, приключения, фэнтези, комедия, WEBDLRip] MVO

12 | 1

1.36 ГБ

В этой теме нет новых непрочитанных сообщений. Джуманджи: Зов джунглей / Jumanji: Welcome to the Jungle (Джейк Кэздан) [2017, фэнтези, боевик, комедия, приключения, семейный, WEBDLRip-AVC] DUB

2 | 16

1.46 ГБ

В этой теме нет новых непрочитанных сообщений. Псы под прикрытием / Show Dogs (Раджа Госнелл) [2018, комедия, приключения, семейный, WEBDLRip] DUB

75 | 1

1.37 ГБ

В этой теме нет новых непрочитанных сообщений. Джим Пуговка и машинист Лукас / Jim Knopf und Lukas der Lokomotivfuhrer (Деннис Ганзель) [2018, фэнтези, семейный, приключения, WEBDLRip] DUB

69 | 0

1.46 ГБ

В этой теме нет новых непрочитанных сообщений. Охота на монстра 2 / Zhuo yao ji 2 (Раман Хуэй) [2018, фэнтези, комедия, приключения, WEBDLRip] MVO

18 | 0

1.46 ГБ




Вы не можете начинать темы
Вы не можете отвечать на сообщения
Вы не можете редактировать свои сообщения
Вы не можете удалять свои сообщения
Вы не можете добавлять вложения

Перейти:  
 Вход
ppkBB3cker v.2 © 2008-2014 @ PPK
[ Time : 0.030s | 17 Queries | GZIP : Off ]

cron