img image001 image001 image001 image001 image001 image001 image001 image001 image001 image001 image001 image001 image001 image001 image001 image001

Planets Sun Sun Sun
Статистика раздачи
Автор: Снежана | Размер: 1.46 ГБ | Добавлен: 04 дек 2018
Раздают: 34    Качают: 3
Скачать торрент
Скачать торрент
Описание торрента

СообщениеДобавлено: 04 дек 2018 

Титан / The Titan


Перевод: Профессиональный (полное дублирование) iTunes, субтитры: отсутствуют
Формат: HDRip-AVC, MKV, H.264, AC3
Страна: Великобритания, Испания, США, Германия
Режиссер: Леннарт Рафф
Жанр: фантастика, триллер
Продолжительность: 01:37:19
Год выпуска: 2018
В ролях: Сэм Уортингтон, Тейлор Шиллинг, Том Уилкинсон, Агнесс Дейн, Натали Эммануэль, Ноа Джуп, Кори Джонсон, Александр Йованович, Диего Бонета, Аарон Хеффернан

Описание: Американский военный Рик принимает участие в грандиозной космической программе. Лучшие умы планеты пытаются создать сверхлюдей, которые после гибели Земли обеспечат продолжение существования человечества на планете Титан. Однако эксперимент по скрещиванию генов Homo sapiens с инопланетным существом приводит к совершенно непредсказуемым последствиям.



Видео: 1024x432 (2.40:1), 23.976 fps, AVC MPEG4 (x264), , ~1760 kbps avg, 0.166 bit/pixel
Аудио: 48 kHz, AC3 Dolby Digital, 3/2 (L,C,R,l,r) + LFE ch, ~384 kbps
General
Unique ID : 51388177057604721922685061228313649016 (0x26A900BDF0ECEACE272579655DCF1F78)
Complete name : C:\Users\123\Desktop\The.Titan.2018.HDRip-AVC_[tfile.ru].mkv
Format : Matroska
Format version : Version 4 / Version 2
File size : 1.46 GiB
Duration : 1h 37mn
Overall bit rate mode : Constant
Overall bit rate : 2 144 Kbps
Movie name : Titan 2018 from ExKinoRay
Encoded date : UTC 2018-05-05 00:28:43
Writing application : Lavf56.36.100
Writing library : Lavf56.36.100

Video
ID : 2
Format : AVC
Format/Info : Advanced Video Codec
Format profile :
Format settings, CABAC : Yes
Format settings, ReFrames : 2 frames
Format settings, GOP : M=1, N=25
Codec ID : V_MPEG4/ISO/AVC
Duration : 1h 37mn
Bit rate mode : Constant
Bit rate : 1 760 Kbps
Width : 1 024 pixels
Height : 432 pixels
Display aspect ratio : 2.40:1
Frame rate mode : Constant
Frame rate : 23.976 fps
Color space : YUV
Chroma subsampling : 4:2:0
Bit depth : 8 bits
Scan type : Progressive
Bits/(Pixel*Frame) : 0.166
Stream size : 1.17 GiB (80%)
Language : English
Default : Yes
Forced : No
DURATION : 01:37:17.750000000
NUMBER_OF_FRAMES : 140106
NUMBER_OF_BYTES : 4370488680
_STATISTICS_WRITING_APP : mkvmerge v7.3.0 ('Nouages') 64bit built on Oct 22 2014 18:53:34
_STATISTICS_WRITING_DATE_UTC : 2018-05-05 00:28:43
_STATISTICS_TAGS : BPS DURATION NUMBER_OF_FRAMES NUMBER_OF_BYTES

Audio
ID : 1
Format : AC-3
Format/Info : Audio Coding 3
Mode extension : CM (complete main)
Format settings, Endianness : Big
Codec ID : A_AC3
Duration : 1h 37mn
Bit rate mode : Constant
Bit rate : 384 Kbps
Channel(s) : 6 channels
Channel positions : Front: L C R, Side: L R, LFE
Sampling rate : 48.0 KHz
Bit depth : 32 bits
Compression mode : Lossy
Stream size : 267 MiB (18%)
Title : iTunes
Language : Russian
Default : Yes
Forced : No
DURATION : 01:37:06.816000000
NUMBER_OF_FRAMES : 182088
NUMBER_OF_BYTES : 279687168
_STATISTICS_WRITING_APP : mkvmerge v7.3.0 ('Nouages') 64bit built on Oct 22 2014 18:53:34
_STATISTICS_WRITING_DATE_UTC : 2018-05-05 00:28:43
_STATISTICS_TAGS : BPS DURATION NUMBER_OF_FRAMES NUMBER_OF_BYTES












   Похожие торренты   Торрент   Размер 
В этой теме нет новых непрочитанных сообщений. Титан / The Titan (Леннарт Рафф) [2018, фантастика, триллер, BDRip] DUB / Фантастика

99 | 3

1.42 ГБ

В этой теме нет новых непрочитанных сообщений. Титан / The Titan (Леннарт Рафф) [2018, Фантастика, WEB-DLRip] ENG

13 | 2

1.29 ГБ

В этой теме нет новых непрочитанных сообщений. Местные / The Domestics (Майк П. Нельсон) [2018, фантастика, триллер, BDRip] MVO / Фантастика

37 | 4

1.46 ГБ

В этой теме нет новых непрочитанных сообщений. Мег: Монстр глубины / The Meg (Джон Тёртлтауб ) [2018 , ужасы, фантастика, боевик, триллер , BDRip] DUB / Фантастика

59 | 6

2.18 ГБ

В этой теме нет новых непрочитанных сообщений. Дыши во мгле / Dans la brume (Дэниэл Роби) [2018, фантастика, триллер, приключения, BDRip] DUB / Фантастика

40 | 0

745.27 МБ

В этой теме нет новых непрочитанных сообщений. Дыши во мгле / Dans la brume (Дэниэл Роби) [2018, фантастика, триллер, приключения, BDRip] DUB / Фантастика

1285 | 25

1.42 ГБ

В этой теме нет новых непрочитанных сообщений. Геошторм / Geostorm (Дин Девлин) [2017, фантастика, боевик, триллер, HDRip-AVC] DUB / Фантастика

18 | 0

1.46 ГБ




Вы не можете начинать темы
Вы не можете отвечать на сообщения
Вы не можете редактировать свои сообщения
Вы не можете удалять свои сообщения
Вы не можете добавлять вложения

Перейти:  
 Вход
ppkBB3cker v.2 © 2008-2014 @ PPK
[ Time : 0.035s | 16 Queries | GZIP : Off ]

cron