img image001 image001 image001 image001 image001 image001 image001 image001 image001 image001 image001 image001 image001 image001 image001 image001

Planets Sun Sun Sun
Статистика раздачи
Автор: Снежана | Размер: 2.11 ГБ | Добавлен: 16 ноя 2018
Раздают: 17    Качают: 0
Скачать торрент
Скачать торрент
Описание торрента

СообщениеДобавлено: 16 ноя 2018 

Выживая с волками (Режиссёрская версия) / Survivre avec les loups
Оценка релиза: 

Перевод: Профессиональный (многоголосый закадровый), субтитры: отсутствуют
Формат: HDRip-AVC, MKV, H.264, AC3
Страна: Франция, Бельгия, Германия
Режиссер: Вера Белмонт
Жанр: драма
Продолжительность: 02:03:28
Год выпуска: 2007
В ролях: Матильда Гоффар, Яэль Абекассис, Ги Бедос, Мишель Бернье, Бенно Фюрманн, Энн-Мари Филип, Франк де ла Персонн, Мари Кремер, Патрик Шевалье
Описание:
1941 год. Родители девочки Миши, скрывавшиеся в Бельгии, депортированы. Ребенок решает бежать на восток и найти их. Чтобы выжить, девочке приходится красть еду и одежду. В лесу ее спасает от гибели пара волков, переняв повадки которых, она становится полноправным членом стаи. За четыре года скитаний по охваченной огнем и залитой кровью Европе девочка открывает для себя звериную жестокость людей и доброту диких животных…



Видео: 1024x436 (2.35:1) 24.000 fps, MPEG4 AVC (x264) , 2000 kbps avg, 0.187 bit/pixel
Аудио: 48 kHz, AC3 Dolby Digital, 3/2 (L,C,R,l,r) + LFE ch, ~448.00 kbps avg

Complete name : D:\Vyzhit.s.volkami.2007.HDRip-AVC.2,1gb.mkv
Format : Matroska
File size : 2.11 GiB
Duration : 2h 3mn
Overall bit rate : 2 450 Kbps
Encoded date : UTC 2018-11-15
Writing application : Lavf55.11.101
Writing library : Lavf55.11.101

Video
ID : 1
Format : AVC
Format/Info : Advanced Video Codec
Format profile :
Format settings, CABAC : Yes
Format settings, ReFrames : 8 frames
Codec ID : V_MPEG4/ISO/AVC
Duration : 2h 3mn
Bit rate : 2 000 Kbps
Width : 1 024 pixels
Height : 436 pixels
Display aspect ratio : 2.35:1
Frame rate : 24.000 fps
Color space : YUV
Chroma subsampling : 4:2:0
Bit depth : 8 bits
Scan type : Progressive
Bits/(Pixel*Frame) : 0.187
Stream size : 1.68 GiB (80%)
Writing library : x264 core 129 r2245 bc13772
Encoding settings : cabac=1 / ref=8 / deblock=1:-2:-2 / analyse=0x3:0x133 / me=umh / subme=11 / psy=1 / psy_rd=1.00:0.00 / mixed_ref=1 / me_range=48 / chroma_me=1 / trellis=2 / 8x8dct=1 / cqm=0 / deadzone=21,11 / fast_pskip=0 / chroma_qp_offset=-2 / threads=3 / lookahead_threads=1 / sliced_threads=0 / nr=0 / decimate=0 / interlaced=0 / bluray_compat=0 / constrained_intra=0 / bframes=8 / b_pyramid=2 / b_adapt=2 / b_bias=0 / direct=3 / weightb=1 / open_gop=0 / weightp=2 / keyint=240 / keyint_min=23 / scenecut=40 / intra_refresh=0 / rc=2pass / mbtree=0 / bitrate=2000 / ratetol=1.0 / qcomp=0.60 / qpmin=10 / qpmax=51 / qpstep=4 / cplxblur=20.0 / qblur=0.5 / ip_ratio=1.40 / pb_ratio=1.30 / aq=2:1.00

Audio
ID : 2
Format : AC-3
Format/Info : Audio Coding 3
Mode extension : CM (complete main)
Codec ID : A_AC3
Duration : 2h 3mn
Bit rate mode : Constant
Bit rate : 448 Kbps
Channel(s) : 6 channels
Channel positions : Front: L C R, Side: L R, LFE
Sampling rate : 48.0 KHz
Bit depth : 16 bits
Stream size : 396 MiB (18%)
Language : Russian














   Похожие торренты   Торрент   Размер 
В этой теме нет новых непрочитанных сообщений. Выживая с волками / Survivre avec les loups (2007) BDRip 720p | P

245 | 37

4.76 ГБ

В этой теме нет новых непрочитанных сообщений. Танцы с волками / Танцующий с волками / Dances with Wolves (1990) HDRip от Scarabey | Режиссерская версия

409 | 32

1.46 ГБ

В этой теме нет новых непрочитанных сообщений. Танцующий с волками / Dances with Wolves (1990) HDRip от Scarabey | Режиссерская версия

487 | 16

2.19 ГБ

В этой теме нет новых непрочитанных сообщений. Братство волка / Le Pacte Des Loups (2001) HDRip by msltel | D, P, A | Режиссёрская версия

68 | 15

3.88 ГБ

В этой теме нет новых непрочитанных сообщений. Братство волка / Le Pacte des loups (2001) HDRip от HQ-ViDEO | Режиссерская версия | D

228 | 21

2.18 ГБ

В этой теме нет новых непрочитанных сообщений. Танцующий с волками / Dances with Wolves (1990) 2xDVD9 | Режиссерская версия

7 | 6

14.25 ГБ

В этой теме нет новых непрочитанных сообщений. Братство волка / Le Pacte Des Loups (2001) HDDVDRip 1080p by msltel | D, P, A | Режиссёрская версия

64 | 48

16.04 ГБ




Вы не можете начинать темы
Вы не можете отвечать на сообщения
Вы не можете редактировать свои сообщения
Вы не можете удалять свои сообщения
Вы не можете добавлять вложения

Перейти:  
 Вход
ppkBB3cker v.2 © 2008-2014 @ PPK
[ Time : 0.032s | 19 Queries | GZIP : Off ]

cron