img image001 image001 image001 image001 image001 image001 image001 image001 image001 image001 image001 image001 image001 image001 image001 image001

Planets Sun Sun Sun
Статистика раздачи
Автор: Снежана | Размер: 2.18 ГБ | Добавлен: 15 ноя 2018
Раздают: 44    Качают: 12
Скачать торрент
Скачать торрент
Описание торрента

СообщениеДобавлено: 15 ноя 2018 

Инран: Волчья бригада / Inrang / Illang: The Wolf Brigade


Перевод: Любительский (двухголосый) (Ворон и Exa)
Субтитры: русские форсированные на надписи, русские полные softsub
Формат: WEBDLRip-AVC, MKV, H.264, AC3
Страна: Корея Южная
Режиссер: Ким Джи-ун
Жанр: боевик, фантастика
Продолжительность: 02:19:50
Год выпуска: 2018
В ролях: Кан ДонВон, Хан ХеДжу, Чон УСон, Ким МуЮль, Хан ЕРи, Чхве МинХо, Хо ЧонХо, Шин ЫнСу
Описание:
В 2029 году Южная и Северная Кореи договорились создать единое правительство. Подготовка к воссоединению велась 5 лет. Тем временем террористическая организация под названием Секта устраивает беспорядки и выступает против объединения двух стран. Для противодействия террористам правительство создает Специальный отряд. Интриги в государственном аппарате не утихают: не все высокопоставленные чиновники поддерживают курс двух Корей на сближение.



Видео: 800x336 (2.40:1), 23.976 fps, AVC MPEG-4 (H.264), ~1459 kbps, 0.226 bit/pixel
Аудио#1: Русский: 48 kHz, AC3 Dolby Digital, 3/2 (L,C,R,l,r) + LFE ch, ~384 kbps [Любительский (двухголосый) (Ворон и Exa)]
Аудио#1: Корейский: 48 kHz, AC3 Dolby Digital, 3/2 (L,C,R,l,r) + LFE ch, ~384 kbps[Оригинал]
Общее
Уникальный идентификатор : 250622543127734006646056482158879810431 (0xBC8C2563D93C9CB1BB9821897C45A37F)
Полное имя : H:\Новая папка\Illang.The.Wolf.Brigade.2018.WEBDLRip-AVC.RU.KO.[Batafurai team_&_SOUND-GROUP].mkv
Формат : Matroska
Версия формата : Version 4 / Version 2
Размер файла : 2,18 Гбайт
Продолжительность : 2 ч. 19 м.
Общий поток : 2233 Кбит/сек
Дата кодирования : UTC 2018-11-14 16:58:08
Программа кодирования : mkvmerge v8.2.0 ('World of Adventure') 32bit
Библиотека кодирования : libebml v1.3.1 + libmatroska v1.4.2
Attachments : 12003.otf / calibrib.ttf / calibriz.ttf / FRAMDCN.TTF / times.ttf / timesbd.ttf / timesbi.ttf

Видео
Идентификатор : 1
Формат : AVC
Формат/Информация : Advanced Video Codec
Профиль формата :
Настройки формата : CABAC / 10 Ref Frames
Параметр CABAC формата : Да
Параметр RefFrames формата : 10 кадров
Идентификатор кодека : V_MPEG4/ISO/AVC
Продолжительность : 2 ч. 19 м.
Битрейт : 1459 Кбит/сек
Ширина : 800 пикселей
Высота : 336 пикселей
Соотношение сторон : 2,40:1
Режим частоты кадров : Постоянный
Частота кадров : 23,976 (24000/1001) кадра/сек
Цветовое пространство : YUV
Субдискретизация насыщенности : 4:2:0
Битовая глубина : 8 бит
Тип развёртки : Прогрессивная
Бит/(Пиксели*Кадры) : 0.226
Размер потока : 1,43 Гбайт (65%)
Библиотека кодирования : x264 core 148 r2638 7599210
Настройки программы : cabac=1 / ref=10 / deblock=1:-2:-1 / analyse=0x3:0x133 / me=umh / subme=10 / psy=1 / psy_rd=1.00:0.00 / mixed_ref=1 / me_range=24 / chroma_me=1 / trellis=2 / 8x8dct=1 / cqm=0 / deadzone=21,11 / fast_pskip=0 / chroma_qp_offset=-2 / threads=6 / lookahead_threads=1 / sliced_threads=0 / nr=0 / decimate=0 / interlaced=0 / bluray_compat=0 / constrained_intra=0 / bframes=10 / b_pyramid=2 / b_adapt=2 / b_bias=0 / direct=3 / weightb=1 / open_gop=1 / weightp=2 / keyint=240 / keyint_min=23 / scenecut=40 / intra_refresh=0 / rc_lookahead=60 / rc=2pass / mbtree=0 / bitrate=1459 / ratetol=1.0 / qcomp=0.70 / qpmin=10 / qpmax=51 / qpstep=4 / cplxblur=20.0 / qblur=0.5 / vbv_maxrate=62500 / vbv_bufsize=78125 / nal_hrd=none / filler=0 / ip_ratio=1.40 / pb_ratio=1.30 / aq=1:1.00
Язык : English
Default : Да
Forced : Нет
Цветовой диапазон : Limited
Коэффициенты матрицы : BT.709

Аудио #1
Идентификатор : 2
Формат : AC-3
Формат/Информация : Audio Coding 3
Идентификатор кодека : A_AC3
Продолжительность : 2 ч. 19 м.
Вид битрейта : Постоянный
Битрейт : 384 Кбит/сек
Каналы : 6 каналов
Расположение каналов : Front: L C R, Side: L R, LFE
Частота : 48,0 КГц
Частота кадров : 31,250 кадров/сек (1536 SPF)
Битовая глубина : 16 бит
Метод сжатия : С потерями
Размер потока : 384 Мбайт (17%)
Заголовок : Ворон и Exa
Язык : Russian
ServiceKind/String : Complete Main
Default : Да
Forced : Нет

Аудио #2
Идентификатор : 3
Формат : AC-3
Формат/Информация : Audio Coding 3
Идентификатор кодека : A_AC3
Продолжительность : 2 ч. 19 м.
Вид битрейта : Постоянный
Битрейт : 384 Кбит/сек
Каналы : 6 каналов
Расположение каналов : Front: L C R, Side: L R, LFE
Частота : 48,0 КГц
Частота кадров : 31,250 кадров/сек (1536 SPF)
Битовая глубина : 16 бит
Метод сжатия : С потерями
Размер потока : 384 Мбайт (17%)
Заголовок : Original
Язык : Korean
ServiceKind/String : Complete Main
Default : Нет
Forced : Нет

Текст #1
Идентификатор : 4
Формат : ASS
Идентификатор кодека : S_TEXT/ASS
Идентификатор кодека/Информация : Advanced Sub Station Alpha
Продолжительность : 2 ч. 15 м.
Битрейт : 3 бит/сек
ElementCount : 23
Метод сжатия : Без потерь
Размер потока : 3,78 Кбайт (0%)
Заголовок : форсированный(надписи)
Язык : Russian
Default : Да
Forced : Да

Текст #2
Идентификатор : 5
Формат : ASS
Идентификатор кодека : S_TEXT/ASS
Идентификатор кодека/Информация : Advanced Sub Station Alpha
Продолжительность : 2 ч. 18 м.
Битрейт : 64 бит/сек
ElementCount : 833
Метод сжатия : Без потерь
Размер потока : 65,4 Кбайт (0%)
Заголовок : Перевод - [Фансаб-группа Zipper]
Язык : Russian
Default : Нет
Forced : Нет


Трейлеры:









   Похожие торренты   Торрент   Размер 
В этой теме нет новых непрочитанных сообщений. Инран: Волчья бригада / Illang: The Wolf Brigade (Ким Джи-ун) [2018, фантастика, боевик, WEBDLRip] MVO

53 | 7

2.05 ГБ

В этой теме нет новых непрочитанных сообщений. Оккупация / Occupation (Люк Спарк) [2018, фантастика, боевик, WEBDLRip] МVO / Фантастика

24 | 0

2.05 ГБ

В этой теме нет новых непрочитанных сообщений. Оккупация / Occupation (Люк Спарк) [2018, фантастика, боевик, WEBDLRip] МVO / Фантастика

27 | 1

1.37 ГБ

В этой теме нет новых непрочитанных сообщений. Оккупация / Occupation (Люк Спарк) [2018, фантастика, боевик, WEBDLRip] MVO

90 | 3

2.18 ГБ

В этой теме нет новых непрочитанных сообщений. НЛО / UFO (Райан Эслинджер) [2018, фантастика, боевик, триллер, WEBDLRip] MVO

31 | 2

1.38 ГБ

В этой теме нет новых непрочитанных сообщений. Телекинез / Yeomryeok (Ён Сан-хо) [2018, комедия, фантастика, боевик, WEBDLRip] MVO

21 | 0

1.46 ГБ

В этой теме нет новых непрочитанных сообщений. НЛО / UFO (Райан Эслинджер) [2018, триллер, фантастика, боевик, WEBDLRip] MVO

195 | 3

1.36 ГБ




Вы не можете начинать темы
Вы не можете отвечать на сообщения
Вы не можете редактировать свои сообщения
Вы не можете удалять свои сообщения
Вы не можете добавлять вложения

Перейти:  
 Вход
ppkBB3cker v.2 © 2008-2014 @ PPK
[ Time : 0.019s | 17 Queries | GZIP : Off ]

cron