img image001 image001 image001 image001 image001 image001 image001 image001 image001 image001 image001 image001 image001 image001 image001 image001

Planets Sun Sun Sun
Статистика раздачи
Автор: Снежана | Размер: 1.38 ГБ | Добавлен: 15 ноя 2018
Раздают: 4    Качают: 0
Скачать торрент
Скачать торрент
Описание торрента

СообщениеДобавлено: 15 ноя 2018 

Почти как Мерси / Almost Mercy
Оценка релиза: 

Перевод: Любительский (одноголосый)datynet; перевод: Куценко, субтитры: отсутствуют
Формат: WEBRip, AVI, XviD, MP3
Страна: США
Режиссер: Том ДеНуччи / Tom DeNucci
Жанр: ужасы
Продолжительность: 01:24:43
Год выпуска: 2015
В ролях: Кэйн Ходдер, Билл Моусли, Томми Дример, Элли Маршалл, Ник Принсип, Даниэль Гулдин, Памела Фигуередо, Хосе Ганз Алвес, Таня Мелендес Линч, Эрик Наенхюис, Дэвид Гир, Ким Мулхаузер, Роман Вангели, Келби Акин, Дж.П. Валенти, Микаэла Хаппас, Рени Лаури, Стейси Форбс Иваницки, Эшли Кутюр, Александр Кук, Эдмунд Ресендес, Хейли Пайн, Диана Портер, Ноэль Рамос, Алекса Редди, Джесси Дюфо, Эбби Рэйн Хейсер, Зафир Латесса, Марти Смит, Эва Сенерчиа, Уильям ДеКофф, Бет Кэмпбелл, Йен Лайонс, Ной Талли Сэндерсон, Хэйли Кроган, Роберт Гленн, Джейсон Тиси, Паскале Далессио, Шон Лесер, Тесс Деген, Лино Танака, Джона Копполелли, Майкл Энтони Джой, Джаред Мармитт, Томми Бурк, Майк Беннетт, Мелани Харди, Даниэль Роуз Дарлинг, Эллисон Брэдшоу, Фред Салливан мл., Ханна Копполелли, Кристофер Р. Свансон, Брэндон Гарви, Тайлер Ловелл, Дэррил Ловелл, Сандра Л. Фогелл, Денис Ицци, Брайс Кипп, Моника Дюпри, Гвен Косак, Брэндон Ла Флер.
Описание: Эмили и Джексон с виду кажутся типичной парой друзей, однако на деле все не так: эти милые детишки являются детьми Дьявола в людской шкуре, настоящими психопатами, которые словно часовая бомба с каждым днем набираются гнева, и только жители смогут раскрыть ужасную загадку, прежде чем волна террора настигнет их городок…



Видео: 720x304 (2.37:1), 23.976 fps, XviD MPEG-4 ~2127 kbps avg, 0.41 bit/pixel
Аудио: 48 kHz, MPEG Layer 3, 2 ch, ~192.00 kbps avg
Доп. информация:

General
Complete name : Almost Mercy 2015.avi
Format : AVI
Format/Info : Audio Video Interleave
File size : 1.38 GiB
Duration : 1 h 24 min
Overall bit rate : 2 329 kb/s
Writing library : VirtualDub build 35491/release

Video
ID : 0
Format : MPEG-4 Visual
Format profile : Advanced Simple@L5
Format settings, BVOP : 2
Format settings, QPel : No
Format settings, GMC : No warppoints
Format settings, Matrix : Custom
Codec ID : XVID
Codec ID/Hint : XviD
Duration : 1 h 24 min
Bit rate : 2 127 kb/s
Width : 720 pixels
Height : 304 pixels
Display aspect ratio : 2.35:1
Frame rate : 23.976 (24000/1001) FPS
Color space : YUV
Chroma subsampling : 4:2:0
Bit depth : 8 bits
Scan type : Progressive
Compression mode : Lossy
Bits/(Pixel*Frame) : 0.405
Stream size : 1.26 GiB (91%)
Writing library : XviD 64

Audio
ID : 1
Format : MPEG Audio
Format version : Version 1
Format profile : Layer 3
Codec ID : 55
Codec ID/Hint : MP3
Duration : 1 h 24 min
Bit rate mode : Constant
Bit rate : 192 kb/s
Channel(s) : 2 channels
Sampling rate : 48.0 kHz
Compression mode : Lossy
Stream size : 116 MiB (8%)
Alignment : Aligned on interleaves
Interleave, duration : 42 ms (1.00 video frame)
Interleave, preload duratio : 504 ms







   Похожие торренты   Торрент   Размер 
В этой теме нет новых непрочитанных сообщений. Почти как Мерси / Almost Mercy (Том ДеНуччи / Tom DeNucci) [2015, ужасы, WEBRip-AVC] VO / Мистика

15 | 1

928.06 МБ

В этой теме нет новых непрочитанных сообщений. Шёпот / Whispers (Тамми Саттон / Tammi Sutton) [2015, ужасы, триллер, мистика, драма, WEBDLRip] VO / Мистика

26 | 0

747.85 МБ

В этой теме нет новых непрочитанных сообщений. Кабель / Cord (Пабло Гонзалез / Pablo Gonzalez) [2015, ужасы, фантастика, фэнтези, мелодрама, WEBRip-AVC] VO / Мистика

26 | 0

413.06 МБ

В этой теме нет новых непрочитанных сообщений. Крепость / The Keep (Майкл Манн ) [1983, ужасы, мистика, WEBRip] DVO

9 | 0

1.46 ГБ

В этой теме нет новых непрочитанных сообщений. Няня / The Babysitter (МакДжи) [2017, Ужасы, комедия, WEBRip] DUB / Мистика

22 | 0

1.46 ГБ

В этой теме нет новых непрочитанных сообщений. Муза / Muse (Жауме Балагуэро) [2017, ужасы, мистика, детектив, триллер, BDRip] MVO / Мистика

22 | 0

1.46 ГБ

В этой теме нет новых непрочитанных сообщений. Кукла / Мальчик / The Boy (Уильям Брент Белл) [2016, ужасы, мистика, триллер, детектив, BDRip] DUB / Мистика

61 | 5

1.46 ГБ




Вы не можете начинать темы
Вы не можете отвечать на сообщения
Вы не можете редактировать свои сообщения
Вы не можете удалять свои сообщения
Вы не можете добавлять вложения

Перейти:  
 Вход
ppkBB3cker v.2 © 2008-2014 @ PPK
[ Time : 0.036s | 15 Queries | GZIP : Off ]

cron