img image001 image001 image001 image001 image001 image001 image001 image001 image001 image001 image001 image001 image001 image001 image001 image001

Planets Sun Sun Sun
Статистика раздачи
Автор: Снежана | Размер: 1.8 ГБ | Добавлен: 14 ноя 2018
Раздают: 22    Качают: 0
Скачать торрент
Скачать торрент
Описание торрента

СообщениеДобавлено: 14 ноя 2018 

Покрась это красным / Paint It Red


Перевод: Любительский (двухголосый) (HiWayGrope), субтитры: отсутствуют
Формат: WEBRip-AVC, MKV, H.264, AC3
Страна: США
Режиссер: Пол Т. Мюррэй
Жанр: триллер, комедия, криминал
Продолжительность: 01:21:55
Год выпуска: 2018
В ролях: Мартин Коув, Кирби Блисс Блэнтон, Сэлли Кёркленд, Кэсси Стил, Рэнди Уэйн, Хлео Томас, Джек МакГи, Рэй Диас, Джошуа Суссман, Джасинта Степлтон
Описание:
Пара грабителей банков наводят ужас на жильцов жилого комплекса в поисках своей добычи.



Видео: 1280x536 (2,40:1), 24 fps, AVC MPEG-4 (x264), , ~ 2893 Kbps avg, 0.176 bit/pixel
Аудио: 48 kHz, AC3 Dolby Digital, 2/0 (L,R) ch, ~192 kbps
Общее
Уникальный идентификатор : 290252283026440317533287707280257475667 (0xDA5C8E6BB0F5A8C46776C4D8765E6453)
Полное имя : H:\Новая папка\Paint.It.Red.2018.720p.WEBRip.HiWayGrope.mkv
Формат : Matroska
Версия формата : Version 4 / Version 2
Размер файла : 1,80 Гбайт
Продолжительность : 1 ч. 21 м.
Общий поток : 3148 Кбит/сек
Дата кодирования : UTC 2018-08-16 15:04:19
Программа кодирования : mkvmerge v21.0.0 ('Tardigrades Will Inherit The Earth') 64-bit
Библиотека кодирования : libebml v1.3.5 + libmatroska v1.4.8

Видео
Идентификатор : 1
Формат : AVC
Формат/Информация : Advanced Video Codec
Профиль формата :
Настройки формата : CABAC / 4 Ref Frames
Параметр CABAC формата : Да
Параметр RefFrames формата : 4 кадра
Идентификатор кодека : V_MPEG4/ISO/AVC
Продолжительность : 1 ч. 21 м.
Битрейт : 2893 Кбит/сек
Ширина : 1280 пикселей
Высота : 536 пикселей
Соотношение сторон : 2,40:1
Режим частоты кадров : Постоянный
Частота кадров : 24,000 кадра/сек
Цветовое пространство : YUV
Субдискретизация насыщенности : 4:2:0
Битовая глубина : 8 бит
Тип развёртки : Прогрессивная
Бит/(Пиксели*Кадры) : 0.176
Размер потока : 1,66 Гбайт (92%)
Язык : English
Default : Да
Forced : Нет
Цветовой диапазон : Limited
Основные цвета : BT.601 NTSC
Характеристики трансфера : BT.601
Коэффициенты матрицы : BT.601

Аудио
Идентификатор : 2
Формат : AC-3
Формат/Информация : Audio Coding 3
Идентификатор кодека : A_AC3
Продолжительность : 1 ч. 21 м.
Вид битрейта : Постоянный
Битрейт : 192 Кбит/сек
Каналы : 2 канала
Расположение каналов : Front: L R
Частота : 48,0 КГц
Частота кадров : 31,250 кадров/сек (1536 SPF)
Битовая глубина : 16 бит
Метод сжатия : С потерями
Размер потока : 113 Мбайт (6%)
Язык : Russian
ServiceKind/String : Complete Main
Default : Да
Forced : Нет


Трейлеры:









   Похожие торренты   Торрент   Размер 
В этой теме нет новых непрочитанных сообщений. 8 подруг Оушена / Ocean's Eight (Гэри Росс) [2018, боевик, триллер, комедия, криминал, HDRip] 2xDUB (rus,ukr)

18 | 3

2.05 ГБ

В этой теме нет новых непрочитанных сообщений. Беглецы / Les fugitifs (Франсис Вебер) [1986, комедия, криминал, BDRip-AVC] DUB+DVO / Фильмы HDRip

0 | 1

2.18 ГБ

В этой теме нет новых непрочитанных сообщений. Ночные игры / Game Night (Джон Фрэнсис Дейли, Джонатан М. Голдштейн) [2018, триллер, комедия, криминал, детектив, HDRip] DUB

88 | 6

1.46 ГБ

В этой теме нет новых непрочитанных сообщений. Видок / Vidocq (Питоф) [2001, фантастика, боевик, триллер, криминал, детектив, BDRip-AVC] DUB / Фильмы HDRip

15 | 0

2.18 ГБ

В этой теме нет новых непрочитанных сообщений. Черная вдова / Black Widow (Боб Рейфелсон) [1987, триллер, драма, криминал, BDRip-AVC] MVO / Фильмы HDRip

27 | 0

2.85 ГБ

В этой теме нет новых непрочитанных сообщений. Книга Генри / The Book of Henry (Колин Треворроу) [2017, триллер, драма, криминал, BDRip-AVC] DUB / Фильмы HDRip

5 | 3

2.83 ГБ

В этой теме нет новых непрочитанных сообщений. Ограбление по-американски / American Heist (Сарик Андреасян) [2014, боевик, триллер, криминал, BDRip-AVC] DUB / Фильмы HDRip

4 | 3

2.31 ГБ




Вы не можете начинать темы
Вы не можете отвечать на сообщения
Вы не можете редактировать свои сообщения
Вы не можете удалять свои сообщения
Вы не можете добавлять вложения

Перейти:  
 Вход
ppkBB3cker v.2 © 2008-2014 @ PPK
[ Time : 0.021s | 16 Queries | GZIP : Off ]

cron