img image001 image001 image001 image001 image001 image001 image001 image001 image001 image001 image001 image001 image001 image001 image001 image001

Planets Sun Sun Sun
Статистика раздачи
Автор: Снежана | Размер: 1.45 ГБ | Добавлен: 13 ноя 2018
Раздают: 54    Качают: 3
Скачать торрент
Скачать торрент
Описание торрента

СообщениеДобавлено: 13 ноя 2018 

Морской Пехотинец 6: Ближний Бой / The Marine 6: Close Quarters


Перевод: Профессиональный (многоголосый закадровый) iTunes, субтитры: отсутствуют
Формат: WEBDLRip-AVC, MKV, H.264, AC3
Страна: США
Режиссер: Джеймс Нанн
Жанр: боевик, драма
Продолжительность: 01:25:23
Год выпуска: 2018
В ролях: Майк Мизанин, Шон Майклз, Ребекка Куинн, Луиза Конолли-Бёрнхем, Теренс Мэйнард, Тим Вудворд, Мартин Форд, Анна Деметриу, Майкл Хиггс, Дэниэл Адегбойега

Описание: Джейк Картер и его бывший коллега-морпех Люк Трэппер объединяют усилия, чтобы спасти похищенную девушку от банды международных преступников во главе с Мэдди Хейс.



Видео: 1024x432 (2.40:1), 23.976 fps, AVC MPEG4 (x264), , ~2055 kbps avg, 0.194 bit/pixel
Аудио: 48 kHz, AC3 Dolby Digital, 3/2 (L,C,R,l,r) + LFE ch, ~384 kbps

General
Unique ID : 201360788428464575423024228156046304897 (0x977CAD5D5F01EF31CC3F58DE7A4FE681)
Complete name : C:\Users\123\Desktop\The_Marine_6 (2018) WEB-DLRip_(AVC)_[tfile.ru].mkv
Format : Matroska
Format version : Version 4 / Version 2
File size : 1.45 GiB
Duration : 1h 25mn
Overall bit rate mode : Constant
Overall bit rate : 2 439 Kbps
Movie name : THE_MARINE_6 (2018) WEB-DL 1080p
Encoded date : UTC 2018-11-13 10:45:49
Writing application : Lavf56.36.100
Writing library : Lavf56.36.100

Video
ID : 2
Format : AVC
Format/Info : Advanced Video Codec
Format profile :
Format settings, CABAC : Yes
Format settings, ReFrames : 2 frames
Format settings, GOP : M=1, N=25
Codec ID : V_MPEG4/ISO/AVC
Duration : 1h 25mn
Bit rate mode : Constant
Bit rate : 2 055 Kbps
Width : 1 024 pixels
Height : 432 pixels
Display aspect ratio : 2.40:1
Frame rate mode : Constant
Frame rate : 23.976 fps
Color space : YUV
Chroma subsampling : 4:2:0
Bit depth : 8 bits
Scan type : Progressive
Bits/(Pixel*Frame) : 0.194
Stream size : 1.20 GiB (82%)
Title : THE_MARINE_6 (2018) WEB-DL 1080p
Language : English
Default : Yes
Forced : No
DURATION : 01:25:23.249000000
NUMBER_OF_FRAMES : 122835
NUMBER_OF_BYTES : 2930191718
_STATISTICS_WRITING_APP : mkvmerge v27.0.0 ('Metropolis') 64-bit
_STATISTICS_WRITING_DATE_UTC : 2018-11-13 10:45:49
_STATISTICS_TAGS : BPS DURATION NUMBER_OF_FRAMES NUMBER_OF_BYTES

Audio
ID : 1
Format : AC-3
Format/Info : Audio Coding 3
Mode extension : CM (complete main)
Format settings, Endianness : Big
Codec ID : A_AC3
Duration : 1h 25mn
Bit rate mode : Constant
Bit rate : 384 Kbps
Channel(s) : 6 channels
Channel positions : Front: L C R, Side: L R, LFE
Sampling rate : 48.0 KHz
Bit depth : 32 bits
Compression mode : Lossy
Stream size : 235 MiB (16%)
Title : iTunes
Language : Russian
Default : Yes
Forced : No
DURATION : 01:25:23.296000000
NUMBER_OF_FRAMES : 160103
NUMBER_OF_BYTES : 245918208
_STATISTICS_WRITING_APP : mkvmerge v27.0.0 ('Metropolis') 64-bit
_STATISTICS_WRITING_DATE_UTC : 2018-11-13 10:45:49
_STATISTICS_TAGS : BPS DURATION NUMBER_OF_FRAMES NUMBER_OF_BYTES












   Похожие торренты   Торрент   Размер 
В этой теме нет новых непрочитанных сообщений. Морской Пехотинец 6: Ближний Бой / The Marine 6: Close Quarters (Джеймс Нанн) [2018, боевик, драма, WEBDLRip] MVO

89 | 2

1.37 ГБ

В этой теме нет новых непрочитанных сообщений. Морской Пехотинец 6: Ближний Бой / The Marine 6: Close Quarters (Джеймс Нанн ) [2018, боевик, драма, WEBDLRip] MVO

39 | 0

1.46 ГБ

В этой теме нет новых непрочитанных сообщений. Проникновение / Breaking In (Джеймс МакТиг) [2018, боевик, триллер, драма, криминал, WEBDLRip] MVO

62 | 11

1.36 ГБ

В этой теме нет новых непрочитанных сообщений. Морской пехотинец 4 / The Marine 4: Moving Target (2015) DVD-5

151 | 26

3.38 ГБ

В этой теме нет новых непрочитанных сообщений. Морской пехотинец / The Marine (2006) BDRip-AVC от MediaClub

125 | 16

3.03 ГБ

В этой теме нет новых непрочитанных сообщений. Морской пехотинец / The Marine (2006) HDRip от KinoRay & Sheikn | D, P

124 | 11

642.73 МБ

В этой теме нет новых непрочитанных сообщений. Морской пехотинец / The Marine (2006) BDRip 720p от MediaClub

45 | 7

6.42 ГБ




Вы не можете начинать темы
Вы не можете отвечать на сообщения
Вы не можете редактировать свои сообщения
Вы не можете удалять свои сообщения
Вы не можете добавлять вложения

Перейти:  
 Вход
ppkBB3cker v.2 © 2008-2014 @ PPK
[ Time : 0.033s | 16 Queries | GZIP : Off ]

cron