img image001 image001 image001 image001 image001 image001 image001 image001 image001 image001 image001 image001 image001 image001 image001 image001

Planets Sun Sun Sun
Статистика раздачи
Автор: Снежана | Размер: 1.45 ГБ | Добавлен: 13 ноя 2018
Раздают: 70    Качают: 2
Скачать торрент
Скачать торрент
Описание торрента

СообщениеДобавлено: 13 ноя 2018 

Ограбление века / Ограбление в Хаттон Гарден / The Hatton Garden Job


Перевод: Профессиональный (полное дублирование) iTunes, субтитры: отсутствуют
Формат: HDRip-AVC, MKV, H.264, AC3
Страна: Великобритания
Режиссер: Ронни Томпсон
Жанр: боевик, триллер, криминал
Продолжительность: 01:32:43
Год выпуска: 2017
В ролях: Пол Мэттью Гуд, Джоэли Ричардсон, Стивен Мойер, Клайв Расселл, Уоррен Браун, Дэвид Колдер, Ларри Ламб, Фил Дэниелс, Джек Дулан, Джон Элфорд

Описание: Реальная история о самом масштабном ограблении в Великобритании. Налётчикам удалось вынести из надёжно защищённого банковского хранилища наличные и ценности на сумму в 200 миллионов фунтов. Воспользовавшись своим богатым жизненным опытом, преступники придумали отличный план, в котором рассчитали каждый шаг буквально по минутам. Это дерзкое ограбление наделало много шуму и сделало всех его участников «знаменитостями».



Видео: 1024x544 (1.882), 23.976 fps, AVC MPEG4 (x264), , ~1860 kbps avg, 0.139 bit/pixel
Аудио: 48 kHz, AC3 Dolby Digital, 3/2 (L,C,R,l,r) + LFE ch, ~384 kbps

General
Unique ID : 141722372962014025038950019712573613721 (0x6A9EBC76CC53688BA3F06D2A5E09A699)
Complete name : C:\Users\123\Desktop\The.Hatton.Garden.Job.2017.HDRip(AVC)_[tfile.ru].mkv
Format : Matroska
Format version : Version 4 / Version 2
File size : 1.45 GiB
Duration : 1h 32mn
Overall bit rate mode : Constant
Overall bit rate : 2 244 Kbps
Movie name : The Hatton Garden Job 2017 - #TorpedoUK#
Encoded date : UTC 2018-11-13 08:14:01
Writing application : Lavf56.36.100
Writing library : Lavf56.36.100

Video
ID : 2
Format : AVC
Format/Info : Advanced Video Codec
Format profile :
Format settings, CABAC : Yes
Format settings, ReFrames : 2 frames
Format settings, GOP : M=1, N=25
Codec ID : V_MPEG4/ISO/AVC
Duration : 1h 32mn
Bit rate mode : Constant
Bit rate : 1 860 Kbps
Width : 1 024 pixels
Height : 544 pixels
Display aspect ratio : 1.882
Frame rate mode : Constant
Frame rate : 23.976 fps
Color space : YUV
Chroma subsampling : 4:2:0
Bit depth : 8 bits
Scan type : Progressive
Bits/(Pixel*Frame) : 0.139
Stream size : 1.18 GiB (81%)
Language : English
Default : Yes
Forced : No
DURATION : 01:32:43.058000000
NUMBER_OF_FRAMES : 133380
NUMBER_OF_BYTES : 1597015957
_STATISTICS_WRITING_APP : mkvmerge v25.0.0 ('Prog Noir') 64-bit
_STATISTICS_WRITING_DATE_UTC : 2018-11-13 08:14:01
_STATISTICS_TAGS : BPS DURATION NUMBER_OF_FRAMES NUMBER_OF_BYTES

Audio
ID : 1
Format : AC-3
Format/Info : Audio Coding 3
Mode extension : CM (complete main)
Format settings, Endianness : Big
Codec ID : A_AC3
Duration : 1h 32mn
Bit rate mode : Constant
Bit rate : 384 Kbps
Channel(s) : 6 channels
Channel positions : Front: L C R, Side: L R, LFE
Sampling rate : 48.0 KHz
Bit depth : 32 bits
Compression mode : Lossy
Stream size : 255 MiB (17%)
Title : DUB [iTunes]
Language : Russian
Default : Yes
Forced : No
DURATION : 01:32:43.232000000
NUMBER_OF_FRAMES : 173851
NUMBER_OF_BYTES : 267035136
_STATISTICS_WRITING_APP : mkvmerge v25.0.0 ('Prog Noir') 64-bit
_STATISTICS_WRITING_DATE_UTC : 2018-11-13 08:14:01
_STATISTICS_TAGS : BPS DURATION NUMBER_OF_FRAMES NUMBER_OF_BYTES











   Похожие торренты   Торрент   Размер 
В этой теме нет новых непрочитанных сообщений. Ограбление века / Ограбление в Хаттон Гарден / The Hatton Garden Job (Ронни Томпсон ) [2017 , боевик, триллер, криминал , BDRip] DUB

27 | 5

1.42 ГБ

В этой теме нет новых непрочитанных сообщений. Ограбление в Хаттон Гарден / The Hatton Garden Job (Ронни Томпсон) [2017, криминал, HDRip] MVO

45 | 3

1.37 ГБ

В этой теме нет новых непрочитанных сообщений. Ограбление в Хаттон Гарден / The Hatton Garden Job (2017) HDRip | L

608 | 29

1.37 ГБ

В этой теме нет новых непрочитанных сообщений. Ограбление в Хаттон Гарден / The Hatton Garden Job (2017) HDRip | L

231 | 4

6.66 ГБ

В этой теме нет новых непрочитанных сообщений. Ограбление по-итальянски / The Italian Job (Ф. Гэри Грей) [2003, боевик, триллер, криминал, BDRip] DUB / Боевики /Action

4 | 0

1.45 ГБ

В этой теме нет новых непрочитанных сообщений. Ограбление по-итальянски / The Italian Job (Ф. Гэри Грей) [2003, боевик, триллер, криминал, LowHDRip-AVC] DUB / Боевики /Action

3 | 0

746.44 МБ

В этой теме нет новых непрочитанных сообщений. Ограбление по-американски / American Heist (Сарик Андреасян) [2014, боевик, триллер, криминал, BDRip] DUB / Боевики /Action

15 | 0

1.46 ГБ




Вы не можете начинать темы
Вы не можете отвечать на сообщения
Вы не можете редактировать свои сообщения
Вы не можете удалять свои сообщения
Вы не можете добавлять вложения

Перейти:  
 Вход
ppkBB3cker v.2 © 2008-2014 @ PPK
[ Time : 0.036s | 16 Queries | GZIP : Off ]

cron