img image001 image001 image001 image001 image001 image001 image001 image001 image001 image001 image001 image001 image001 image001 image001 image001

Planets Sun Sun Sun
Статистика раздачи
Автор: Снежана | Размер: 1.4 ГБ | Добавлен: 13 ноя 2018
Раздают: 11    Качают: 0
Скачать торрент
Скачать торрент
Описание торрента

СообщениеДобавлено: 13 ноя 2018 

Битва за южную железную дорогу / Dvoboj za juznu prugu


Перевод: Авторский (Ю Живов), субтитры: отсутствуют
Формат: DVDRip-AVC, MKV, H.264, AC3
Страна: Югославия (СФРЮ)
Режиссер: Здравко Велимирович
Жанр: военный, мелодрама
Продолжительность: 01:14:12
Год выпуска: 1978
В ролях: Драгомир Боянич, Войя Мирич, Неда Спасоевич, Даница Ристовски, Растислав Йович, Марко Николич, Миролюб Алексич, Славко Штимац, Владан Живкович, Дэниэл Обрадович, Драголюб Новакович, Драган Мичалович, Велько Мандич, Данило Лазович, Миодраг Крстович, Душан Войнович
Описание:
С самого начала осуществления плана Барбаросса и нападения на СССР в июне 1941 года многие части вермахта были переброшены из Югославии в СССР. Тем временем местные партизаны ушли в Балканские горы, чтобы участвовать в вооруженной борьбе с захватчиками родины. Командовал ими, до того, никому неизвестный коммунист Иосиф Броз Тито. Действия его групп поначалу ограничивались нападением на немецкие железнодорожные составы идущие на Восток и в Африку в горных районах Маровары. Руководство партизанского фронта планировало, также диверсионные акции против болгарских сторонников Гитлера. В результате этого - осенью 1941 года в Южной Сербии и Македонии все действующие отряды получили приказ - блокировать движение всех составов по железнодорожным линиям от Солоников до Софии...



Видео: 672x520 (1.29:1) 25.00 fps, MPEG4 AVC (x264) , 2500 kbps avg, 0.286 bit/pixel
Аудио: 48.0 kHz, AC3 Dolby Digital, 2/0 (L,R) ch, ~192 kbps

General
Complete name : D:\Битва за южную железную дорогу_1978 военный YUG S_Rip (1).mkv
Format : Matroska
File size : 1.40 GiB
Duration : 1h 14mn
Overall bit rate : 2 694 Kbps
Encoded date : UTC 2018-07-19 10:07:39
Writing application : mkvmerge v6.9.1 ('Blue Panther') 32bit built on Apr 18 2014 18:15:44
Writing library : libebml v1.3.0 + libmatroska v1.4.1
Cover : Yes

Video
ID : 1
Format : AVC
Format/Info : Advanced Video Codec
Format profile :
Format settings, CABAC : Yes
Format settings, ReFrames : 9 frames
Codec ID : V_MPEG4/ISO/AVC
Duration : 1h 14mn
Bit rate : 2 500 Kbps
Width : 672 pixels
Height : 520 pixels
Display aspect ratio : 1.292
Frame rate : 25.000 fps
Color space : YUV
Chroma subsampling : 4:2:0
Bit depth : 8 bits
Scan type : Progressive
Bits/(Pixel*Frame) : 0.286
Stream size : 1.27 GiB (91%)
Title : Dvoboj za juznu prugu 1978 DVDRip from Serjinho777
Writing library : x264 core 148 r2638 7599210
Encoding settings : cabac=1 / ref=9 / deblock=1:-1:-1 / analyse=0x3:0x111 / me=umh / subme=10 / psy=1 / psy_rd=1.00:0.15 / mixed_ref=1 / me_range=24 / chroma_me=1 / trellis=2 / 8x8dct=1 / cqm=0 / deadzone=21,11 / fast_pskip=1 / chroma_qp_offset=-3 / threads=6 / lookahead_threads=1 / sliced_threads=0 / nr=0 / decimate=1 / interlaced=0 / bluray_compat=0 / constrained_intra=0 / bframes=7 / b_pyramid=2 / b_adapt=2 / b_bias=0 / direct=3 / weightb=1 / open_gop=0 / weightp=2 / keyint=250 / keyint_min=25 / scenecut=40 / intra_refresh=0 / rc_lookahead=60 / rc=2pass / mbtree=1 / bitrate=2500 / ratetol=1.0 / qcomp=0.60 / qpmin=0 / qpmax=69 / qpstep=4 / cplxblur=20.0 / qblur=0.5 / ip_ratio=1.40 / aq=2:1.00
Language : Serbian

Audio
ID : 2
Format : AC-3
Format/Info : Audio Coding 3
Mode extension : CM (complete main)
Codec ID : A_AC3
Duration : 1h 14mn
Bit rate mode : Constant
Bit rate : 192 Kbps
Channel(s) : 2 channels
Channel positions : Front: L R
Sampling rate : 48.0 KHz
Bit depth : 16 bits
Stream size : 102 MiB (7%)
Title : AVO Jury Jivov
Language : Russian





















   Похожие торренты   Торрент   Размер 
В этой теме нет новых непрочитанных сообщений. Битва за ФАУ-1 / Battle of the V-1 (Вернон Сьюэлл ) [1958, военный, драма, экранизация, исторический, DVDRip] АVO (Цветная версия)

0 | 3

1.46 ГБ

В этой теме нет новых непрочитанных сообщений. Тарас Бульба / Taras Bulba ( Дж. Ли Томпсон) [1962, драма, мелодрама, военный, история, DVDRip-AVC] MVO

0 | 0

1.77 ГБ

В этой теме нет новых непрочитанных сообщений. Дорогой Джон / Dear John (Лассе Халльстрём) [2010, драма, мелодрама, военный, DVDRip] DUB / Драмы

20 | 1

1.46 ГБ

В этой теме нет новых непрочитанных сообщений. Паж Густава Адольфа / Gustav Adolfs Page (Рольф Ханзен) [1960, драма, мелодрама, военный, DVDRip] VO

0 | 0

749.09 МБ

В этой теме нет новых непрочитанных сообщений. Последнее путешествие Леандера / Leanders letzte Reise (Ник Бейкер-Монтейс) [2017, драма, мелодрама, военный, DVDRip-AVC] DVO / Драмы

0 | 0

694.25 МБ

В этой теме нет новых непрочитанных сообщений. К берегам Триполи (Курс - Триполи) / To the Shores of Tripoli (Х. Брюс Хамберстоун) [1942, Драма, мелодрама, военный, экранизация, DVDRip] DVO

3 | 0

698.55 МБ

В этой теме нет новых непрочитанных сообщений. К берегам Триполи (Курс - Триполи) / To the Shores of Tripoli (Х. Брюс Хамберстоун) [1942, Драма, мелодрама, военный, экранизация, DVDRip] DVO

2 | 0

1.44 ГБ




Вы не можете начинать темы
Вы не можете отвечать на сообщения
Вы не можете редактировать свои сообщения
Вы не можете удалять свои сообщения
Вы не можете добавлять вложения

Перейти:  
 Вход
ppkBB3cker v.2 © 2008-2014 @ PPK
[ Time : 0.780s | 18 Queries | GZIP : Off ]

cron