img image001 image001 image001 image001 image001 image001 image001 image001 image001 image001 image001 image001 image001 image001 image001 image001

Planets Sun Sun Sun
Статистика раздачи
Автор: Снежана | Размер: 2.32 ГБ | Добавлен: 10 окт 2018
Раздают: 20    Качают: 2
Скачать торрент
Скачать торрент
Описание торрента

СообщениеДобавлено: 10 окт 2018 

Не волнуйся, он далеко не уйдёт / Don't Worry, He Won't Get Far on Foot

Перевод: Профессиональный (многоголосый, закадровый) HDRezka Studio
Субтитры: английские
Формат: BDRip-AVC, MKV, H.264, AC3
Страна: Франция, США
Режиссер: Гас Ван Сент
Жанр: драма, комедия, биография
Продолжительность: 01:54:19
Год выпуска: 2018

В ролях: Хоакин Феникс, Джона Хилл, Руни Мара, Джек Блэк, Тони Гринхэнд, Бет Дитто, Марк Веббер, Ronnie Adrian, Ким Гордон, Удо Кир

Описание: Джон не умел вовремя останавливаться, когда дело касалось быстрой езды, красивых женщин и опасных шуток. Прихватив случайного приятеля на вечеринке, он садится в машину и чудом остаётся в живых. С этого момента начинается горькая и вдохновляющая, правдивая и трогательная история человека, который потерял все, и вынужден двигаться дальше, чтобы обрести себя как одного из самых талантливых художников-карикатуристов Америки.



Видео: 1024x576 (16:9), 23.976 fps, AVC MPEG-4 (H.264), ~2259 kbps, 0.160 bit/pixel
Аудио #1: Русский: 48 kHz, AC3 Dolby Digital, 2 ch, ~192 kbps[Профессиональный (многоголосый, закадровый)]
Аудио #2: Английский: 48 kHz, AC3 Dolby Digital, 6 ch, ~448 kbps [Оригинал]

Формат : Matroska
Версия формата : Version 4 / Version 2
Размер файла : 2,32 Гбайт
Продолжительность : 1 ч. 54 м.
Общий поток : 2900 Кбит/сек
Название фильма : Don't.Worry.He.Won't.Get.Far.on.Foot.2018 #TorpedoUK#
Дата кодирования : UTC 2018-10-10 02:21:37
Программа кодирования : mkvmerge v25.0.0 ('Prog Noir') 64-bit
Библиотека кодирования : libebml v1.3.6 + libmatroska v1.4.9

Видео
Идентификатор : 1
Формат : AVC
Формат/Информация : Advanced Video Codec
Профиль формата :
Параметр CABAC формата : Да
Параметр ReFrames формата : 10 кадров
Идентификатор кодека : V_MPEG4/ISO/AVC
Продолжительность : 1 ч. 54 м.
Битрейт : 2259 Кбит/сек
Ширина : 1024 пикселя
Высота : 576 пикселей
Соотношение сторон : 16:9
Режим частоты кадров : Постоянный
Частота кадров : 23,976 (24000/1001) кадра/сек
Цветовое пространство : YUV
Субдискретизация насыщенности : 4:2:0
Битовая глубина : 8 бит
Тип развёртки : Прогрессивная
Бит/(Пиксели*Кадры) : 0.160
Размер потока : 1,80 Гбайт (78%)
Библиотека кодирования : x264 core 146 r2538 121396c
Настройки программы : cabac=1 / ref=10 / deblock=1:-3:-3 / analyse=0x3:0x113 / me=umh / subme=11 / psy=1 / psy_rd=1.00:0.03 / mixed_ref=1 / me_range=48 / chroma_me=1 / trellis=2 / 8x8dct=1 / cqm=0 / deadzone=21,11 / fast_pskip=1 / chroma_qp_offset=-3 / threads=6 / lookahead_threads=1 / sliced_threads=0 / nr=0 / decimate=1 / interlaced=0 / bluray_compat=0 / constrained_intra=0 / bframes=10 / b_pyramid=2 / b_adapt=2 / b_bias=0 / direct=3 / weightb=1 / open_gop=0 / weightp=2 / keyint=240 / keyint_min=23 / scenecut=40 / intra_refresh=0 / rc_lookahead=40 / rc=2pass / mbtree=0 / bitrate=2259 / ratetol=1.0 / qcomp=0.60 / qpmin=0 / qpmax=69 / qpstep=4 / cplxblur=20.0 / qblur=0.5 / vbv_maxrate=50000 / vbv_bufsize=62500 / nal_hrd=none / filler=0 / ip_ratio=1.40 / pb_ratio=1.30 / aq=1:1.00
Язык : English
Default : Да
Forced : Нет

Аудио #1
Идентификатор : 2
Формат : AC-3
Формат/Информация : Audio Coding 3
Расширение режима : CM (complete main)
Параметр Endianness формата : Big
Идентификатор кодека : A_AC3
Продолжительность : 1 ч. 54 м.
Вид битрейта : Постоянный
Битрейт : 192 Кбит/сек
Каналы : 2 канала
Расположение каналов : Front: L R
Частота : 48,0 КГц
Частота кадров : 31,250 кадров/сек (1536 spf)
Битовая глубина : 16 бит
Метод сжатия : С потерями
Размер потока : 157 Мбайт (7%)
Заголовок : MVO [HDRezka Studio]
Язык : Russian
Default : Да
Forced : Нет

Аудио #2
Идентификатор : 3
Формат : AC-3
Формат/Информация : Audio Coding 3
Расширение режима : CM (complete main)
Параметр Endianness формата : Big
Идентификатор кодека : A_AC3
Продолжительность : 1 ч. 54 м.
Вид битрейта : Постоянный
Битрейт : 448 Кбит/сек
Каналы : 6 каналов
Расположение каналов : Front: L C R, Side: L R, LFE
Частота : 48,0 КГц
Частота кадров : 31,250 кадров/сек (1536 spf)
Битовая глубина : 16 бит
Метод сжатия : С потерями
Размер потока : 366 Мбайт (15%)
Заголовок : [Original]
Язык : English
Default : Нет
Forced : Нет

Текст #1
Идентификатор : 4
Формат : UTF-8
Идентификатор кодека : S_TEXT/UTF8
Идентификатор кодека/Информация : UTF-8 Plain Text
Продолжительность : 1 ч. 53 м.
Битрейт : 67 бит/сек
Count of elements : 1775
Размер потока : 56,0 Кбайт (0%)
Заголовок : Full
Язык : English
Default : Нет
Forced : Нет

Текст #2
Идентификатор : 5
Формат : UTF-8
Идентификатор кодека : S_TEXT/UTF8
Идентификатор кодека/Информация : UTF-8 Plain Text
Продолжительность : 1 ч. 53 м.
Битрейт : 75 бит/сек
Count of elements : 1943
Размер потока : 62,1 Кбайт (0%)
Заголовок : SDH
Язык : English
Default : Нет
Forced : Нет

Меню
00:00:00.000 : en:Chapter 1
00:07:49.760 : en:Chapter 2
00:13:09.622 : en:Chapter 3
00:21:26.076 : en:Chapter 4
00:27:13.965 : en:Chapter 5
00:35:06.479 : en:Chapter 6
00:42:30.673 : en:Chapter 7
00:48:53.555 : en:Chapter 8
00:56:36.309 : en:Chapter 9
01:02:30.496 : en:Chapter 10
01:09:25.953 : en:Chapter 11
01:17:00.282 : en:Chapter 12
01:23:36.636 : en:Chapter 13
01:31:06.544 : en:Chapter 14
01:37:58.747 : en:Chapter 15
01:46:20.832 : en:Chapter 16












   Похожие торренты   Торрент   Размер 
В этой теме нет новых непрочитанных сообщений. Не волнуйся, он далеко не уйдёт / Don't Worry, He Won't Get Far on Foot (Гас Ван Сент) [2018, драма, комедия, биография, BDRip] MVO

20 | 2

1.46 ГБ

В этой теме нет новых непрочитанных сообщений. Не волнуйся, он далеко не уйдёт / Don't Worry, He Won't Get Far on Foot (Гас Ван Сент) [2018, драма, комедия, биография, BDRip] MVO

7 | 0

745.49 МБ

В этой теме нет новых непрочитанных сообщений. Чёрный клановец / BlacKkKlansman (Спайк Ли) [2018, Драма, комедия, криминал, биография, BDRip] DUB

144 | 9

2.12 ГБ

В этой теме нет новых непрочитанных сообщений. Чёрный клановец / BlacKkKlansman (Спайк Ли) [2018, драма, комедия, криминал, биография, WEBDLRip] DUB

35 | 3

2.05 ГБ

В этой теме нет новых непрочитанных сообщений. Чёрный клановец / BlacKkKlansman (Спайк Ли) [2018, драма, комедия, криминал, биография, WEB-DLRip] DUB

144 | 3

1.37 ГБ

В этой теме нет новых непрочитанных сообщений. Удивительный мир Марвена [Трейлер] / Welcome to Marwen (Роберт Земекис) [2018, мультфильм, фэнтези, драма, комедия, биография, WEBRip] DUB

7 | 0

40.93 МБ

В этой теме нет новых непрочитанных сообщений. Последний портрет / Final Portrait (Стэнли Туччи) [2017, драма, комедия, биография, BDRip] MVO

14 | 0

1.46 ГБ




Вы не можете начинать темы
Вы не можете отвечать на сообщения
Вы не можете редактировать свои сообщения
Вы не можете удалять свои сообщения
Вы не можете добавлять вложения

Перейти:  
 Вход
ppkBB3cker v.2 © 2008-2014 @ PPK
[ Time : 0.022s | 15 Queries | GZIP : Off ]

cron