img image001 image001 image001 image001 image001 image001 image001 image001 image001 image001 image001 image001 image001 image001 image001 image001

Planets Sun Sun Sun
Статистика раздачи
Автор: Снежана | Размер: 745.09 МБ | Добавлен: 24 сен 2018
Раздают: 4    Качают: 4
Скачать торрент
Скачать торрент
Описание торрента

СообщениеДобавлено: 24 сен 2018 

Харлей Дэвидсон и ковбой Мальборо / Harley Davidson and the Marlboro Man

Перевод: Профессиональный (многоголосый, закадровый)
Субтитры: Русские, английские
Формат: BDRip-AVC, MKV, H.264, AAC
Страна: США
Режиссер: Саймон Уинсер
Жанр: боевик, триллер, драма, криминал
Продолжительность: 01:38:26
Год выпуска: 1991

В ролях: Микки Рурк, Дон Джонсон, Челси Филд, Тиа Каррере, Дэниэл Болдуин, Джанкарло Эспозито, Ванесса Уильямс, Роберт Гинти, Джулиус Харрис, Элой Касадос

Описание: Ренегат Микки Рурк и невероятно талантливый Дон Джонсон с безудержной мощью и непередаваемым юмором сыграли грубоватых и одновременно сердечных «Робин Гудов» нашего времени. В беззаконном мире конца 80-х некий банк грубо пытается отнять принадлежащий бывшему рокеру бар.
Бродяги Харли Дэвидсон и Ковбой Марльборо решили помочь своему старому другу и ограбить инкассаторов банка. Однако в бронемашине оказываются не деньги, а наркотики. Теперь Рурка и Джонсона преследует банда прихвостней коррумпированного банкира. Скоростные мотоциклы, динамичное действие и мощное современное оружие составляют взрывоопасный рецепт этого футуристического приключенческого фильма.




Видео: 752x408 (1.85:1), 23.976 fps, AVC MPEG-4 (H.264), ~904 kbps, 0.123 bit/pixel
Аудио #2: Русский: 48 kHz, AАС-HE, 2 ch, ~76 kbps [Профессиональный (многоголосый, закадровый)] Лазер Видео
Аудио #2: Русский: 48 kHz, AАС-HE, 2 ch, ~76 kbps [Профессиональный (многоголосый, закадровый)] НТВ

Формат : Matroska
Версия формата : Version 4 / Version 2
Размер файла : 745 Мбайт
Продолжительность : 1 ч. 38 м.
Общий поток : 1058 Кбит/сек
Дата кодирования : UTC 2018-09-22 19:05:38
Программа кодирования : mkvmerge v15.0.0 ('Duel with the Devil') 64-bit
Библиотека кодирования : libebml v1.3.5 + libmatroska v1.4.5

Видео
Идентификатор : 1
Формат : AVC
Формат/Информация : Advanced Video Codec
Профиль формата :
Параметр CABAC формата : Да
Параметр RefFrames формата : 12 кадров
Идентификатор кодека : V_MPEG4/ISO/AVC
Продолжительность : 1 ч. 38 м.
Битрейт : 904 Кбит/сек
Ширина : 752 пикселя
Высота : 408 пикселей
Соотношение сторон : 1,85:1
Режим частоты кадров : Постоянный
Частота кадров : 23,976 (24000/1001) кадра/сек
Цветовое пространство : YUV
Субдискретизация насыщенности : 4:2:0
Битовая глубина : 8 бит
Тип развёртки : Прогрессивная
Бит/(Пиксели*Кадры) : 0.123
Размер потока : 636 Мбайт (85%)
Библиотека кодирования : x264 core 152 r2851kMod ba24899
Настройки программы : cabac=1 / ref=12 / deblock=1:-3:-2 / analyse=0x3:0x133 / me=umh / subme=10 / psy=1 / fade_compensate=0.00 / psy_rd=1.00:0.13 / mixed_ref=1 / me_range=32 / chroma_me=1 / trellis=2 / 8x8dct=1 / cqm=0 / deadzone=21,11 / fast_pskip=0 / chroma_qp_offset=-3 / threads=6 / lookahead_threads=1 / sliced_threads=0 / nr=0 / decimate=0 / interlaced=0 / bluray_compat=0 / constrained_intra=0 / bframes=11 / b_pyramid=2 / b_adapt=2 / b_bias=0 / direct=3 / weightb=1 / open_gop=0 / weightp=2 / keyint=240 / keyint_min=23 / scenecut=40 / intra_refresh=0 / rc_lookahead=40 / rc=2pass / mbtree=1 / bitrate=904 / ratetol=1.0 / qcomp=0.60 / qpmin=0 / qpmax=69 / qpstep=4 / cplxblur=20.0 / qblur=0.5 / ip_ratio=1.40 / aq=3:1.00
Default : Да
Forced : Нет

Аудио #1
Идентификатор : 2
Формат : AAC
Формат/Информация : Advanced Audio Codec
Профиль формата : HE-AAC / LC
Идентификатор кодека : A_AAC
Продолжительность : 1 ч. 38 м.
Битрейт : 76,0 Кбит/сек
Каналы : 2 канала
Расположение каналов : Front: L R
Частота : 48,0 КГц / 24,0 КГц
Частота кадров : 23,438 кадра/сек (1024 SPF)
Метод сжатия : С потерями
Задержка видео : 31 мс.
Размер потока : 53,5 Мбайт (7%)
Язык : Russian
Default : Да
Forced : Нет

Аудио #2
Идентификатор : 3
Формат : AAC
Формат/Информация : Advanced Audio Codec
Профиль формата : HE-AAC / LC
Идентификатор кодека : A_AAC
Продолжительность : 1 ч. 38 м.
Битрейт : 76,0 Кбит/сек
Каналы : 2 канала
Расположение каналов : Front: L R
Частота : 48,0 КГц / 24,0 КГц
Частота кадров : 23,438 кадра/сек (1024 SPF)
Метод сжатия : С потерями
Задержка видео : 31 мс.
Размер потока : 53,5 Мбайт (7%)
Язык : Russian
Default : Нет
Forced : Нет

Текст #1
Идентификатор : 4
Формат : UTF-8
Идентификатор кодека : S_TEXT/UTF8
Идентификатор кодека/Информация : UTF-8 Plain Text
Продолжительность : 1 ч. 33 м.
Битрейт : 78 бит/сек
ElementCount : 846
Размер потока : 53,9 Кбайт (0%)
Заголовок : full
Язык : Russian
Default : Нет
Forced : Нет

Текст #2
Идентификатор : 5
Формат : UTF-8
Идентификатор кодека : S_TEXT/UTF8
Идентификатор кодека/Информация : UTF-8 Plain Text
Продолжительность : 1 ч. 33 м.
Битрейт : 78 бит/сек
ElementCount : 851
Размер потока : 53,8 Кбайт (0%)
Заголовок : Пучков, Дмитрий Юрьевич
Язык : Russian
Default : Нет
Forced : Нет

Текст #3
Идентификатор : 6
Формат : UTF-8
Идентификатор кодека : S_TEXT/UTF8
Идентификатор кодека/Информация : UTF-8 Plain Text
Продолжительность : 1 ч. 33 м.
Битрейт : 43 бит/сек
ElementCount : 1008
Размер потока : 29,7 Кбайт (0%)
Заголовок : full
Язык : English
Default : Нет
Forced : Нет

Текст #4
Идентификатор : 7
Формат : UTF-8
Идентификатор кодека : S_TEXT/UTF8
Идентификатор кодека/Информация : UTF-8 Plain Text
Продолжительность : 1 ч. 37 м.
Битрейт : 48 бит/сек
ElementCount : 1162
Размер потока : 35,0 Кбайт (0%)
Заголовок : SDH_full
Язык : English
Default : Нет
Forced : Нет

Меню
00:00:00.000 : :Chapter 01
00:04:22.720 : :Chapter 02
00:15:50.032 : :Chapter 03
00:27:17.049 : :Chapter 04
00:45:10.416 : :Chapter 05
00:58:38.847 : :Chapter 06
01:12:13.078 : :Chapter 07
01:34:04.055 : :Chapter 08












   Похожие торренты   Торрент   Размер 
В этой теме нет новых непрочитанных сообщений. Харлей Дэвидсон и ковбой Мальборо / Harley Davidson and the Marlboro Man (Саймон Уинсер) [1991, боевик, триллер, драма, криминал, BDRip] DVO+AVO / Боевики /Action

2 | 0

1.46 ГБ

В этой теме нет новых непрочитанных сообщений. Харлей Дэвидсон и ковбой Мальборо / Harley Davidson and the Marlboro Man (1991) BDRip | A

104 | 38

1.45 ГБ

В этой теме нет новых непрочитанных сообщений. Харлей Дэвидсон и Ковбой Мальборо / Harley Davidson And The Marlboro Man (1991) BDRip 1080p | P, P2, A

32 | 8

12.35 ГБ

В этой теме нет новых непрочитанных сообщений. Харлей Дэвидсон и ковбой Мальборо / Harley Davidson and the Marlboro Man (1991) BDRip от HQ-ViDEO

196 | 22

1.46 ГБ

В этой теме нет новых непрочитанных сообщений. Харлей Дэвидсон и ковбой Мальборо / Harley Davidson and the Marlboro Man (1991) BDRip от HQCLUB

139 | 17

1.45 ГБ

В этой теме нет новых непрочитанных сообщений. Харлей Дэвидсон и Ковбой Мальборо / Harley Davidson And The Marlboro Man (1991) BDRip HEVC 1080p | P, A

18 | 1

5.7 ГБ

В этой теме нет новых непрочитанных сообщений. Харлей Дэвидсон и ковбой Мальборо / Harley Davidson and the Marlboro Man (1991) BDRip 720p by msltel

472 | 126

5.17 ГБ




Вы не можете начинать темы
Вы не можете отвечать на сообщения
Вы не можете редактировать свои сообщения
Вы не можете удалять свои сообщения
Вы не можете добавлять вложения

Перейти:  
 Вход
ppkBB3cker v.2 © 2008-2014 @ PPK
[ Time : 0.027s | 17 Queries | GZIP : Off ]

cron