img image001 image001 image001 image001 image001 image001 image001 image001 image001 image001 image001 image001 image001 image001 image001 image001

Planets Sun Sun Sun
Статистика раздачи
Автор: Снежана | Размер: 1.46 ГБ | Добавлен: 19 сен 2018
Раздают: 88    Качают: 10
Скачать торрент
Скачать торрент
Описание торрента

СообщениеДобавлено: 19 сен 2018 

Хан Соло: Звёздные Войны. Истории / Solo: A Star Wars Story

Перевод: Профессиональный (полное дублирование) лицензия
Субтитры: Русские, английские
Формат: BDRip-AVC, MKV, H.264, AC3
Страна: США
Режиссер: Рон Ховард
Жанр: фантастика, фэнтези, боевик, приключения
Продолжительность: 02:14:46
Год выпуска: 2018

В ролях: Олден Эренрайк, Йонас Суотамо, Вуди Харрельсон, Эмилия Кларк, Дональд Гловер, Тэнди Ньютон, Фиби Уоллер-Бридж, Пол Беттани, Джон Фавро, Эрин Келлиман

Описание: Фильм расскажет о похождениях юного космического сорвиголовы Хана Соло и его верного напарника Чубакки и о том, как они стали самыми быстрыми пилотами и самыми хитрыми контрабандистами далёкой Галактики.



Видео: 976x408 (2.40:1), 23.976 fps, AVC MPEG-4 (H.264), ~1102 kbps, 0.115 bit/pixel
Аудио: 48 kHz, AC3 Dolby Digital, 6 ch, ~448 kbps

Формат : Matroska
Версия формата : Version 4 / Version 2
Размер файла : 1,46 Гбайт
Продолжительность : 2 ч. 14 м.
Общий поток : 1550 Кбит/сек
Название фильма : Solo.A.Star.Wars.Story.2018 #TorpedoUK#
Дата кодирования : UTC 2018-09-16 13:18:06
Программа кодирования : mkvmerge v25.0.0 ('Prog Noir') 64-bit
Библиотека кодирования : libebml v1.3.6 + libmatroska v1.4.9
Обложка : Yes
Attachments : cover_land.jpg / small_cover.jpg / small_cover_land.jpg / cover.jpg

Видео
Идентификатор : 1
Формат : AVC
Формат/Информация : Advanced Video Codec
Профиль формата :
Параметр CABAC формата : Да
Параметр ReFrames формата : 10 кадров
Идентификатор кодека : V_MPEG4/ISO/AVC
Продолжительность : 2 ч. 14 м.
Битрейт : 1102 Кбит/сек
Ширина : 976 пикселей
Высота : 408 пикселей
Соотношение сторон : 2,40:1
Режим частоты кадров : Постоянный
Частота кадров : 23,976 (24000/1001) кадра/сек
Цветовое пространство : YUV
Субдискретизация насыщенности : 4:2:0
Битовая глубина : 8 бит
Тип развёртки : Прогрессивная
Бит/(Пиксели*Кадры) : 0.115
Размер потока : 1,04 Гбайт (71%)
Библиотека кодирования : x264 core 146 r2538 121396c
Настройки программы : cabac=1 / ref=10 / deblock=1:-3:-3 / analyse=0x3:0x113 / me=umh / subme=11 / psy=1 / psy_rd=0.99:0.04 / mixed_ref=1 / me_range=48 / chroma_me=1 / trellis=2 / 8x8dct=1 / cqm=0 / deadzone=21,11 / fast_pskip=1 / chroma_qp_offset=-3 / threads=6 / lookahead_threads=1 / sliced_threads=0 / nr=0 / decimate=1 / interlaced=0 / bluray_compat=0 / constrained_intra=0 / bframes=10 / b_pyramid=2 / b_adapt=2 / b_bias=0 / direct=3 / weightb=1 / open_gop=0 / weightp=2 / keyint=240 / keyint_min=23 / scenecut=40 / intra_refresh=0 / rc_lookahead=40 / rc=2pass / mbtree=0 / bitrate=1102 / ratetol=1.0 / qcomp=0.60 / qpmin=0 / qpmax=69 / qpstep=4 / cplxblur=20.0 / qblur=0.5 / vbv_maxrate=50000 / vbv_bufsize=62500 / nal_hrd=none / filler=0 / ip_ratio=1.40 / pb_ratio=1.30 / aq=1:1.00
Default : Да
Forced : Нет

Аудио
Идентификатор : 2
Формат : AC-3
Формат/Информация : Audio Coding 3
Расширение режима : CM (complete main)
Параметр Endianness формата : Big
Идентификатор кодека : A_AC3
Продолжительность : 2 ч. 14 м.
Вид битрейта : Постоянный
Битрейт : 448 Кбит/сек
Каналы : 6 каналов
Расположение каналов : Front: L C R, Side: L R, LFE
Частота : 48,0 КГц
Частота кадров : 31,250 кадров/сек (1536 spf)
Битовая глубина : 16 бит
Метод сжатия : С потерями
Размер потока : 432 Мбайт (29%)
Заголовок : [License]
Язык : Russian
Default : Да
Forced : Нет

Текст #1
Идентификатор : 3
Формат : UTF-8
Идентификатор кодека : S_TEXT/UTF8
Идентификатор кодека/Информация : UTF-8 Plain Text
Продолжительность : 1 ч. 20 м.
Битрейт : 2 бит/сек
Count of elements : 28
Размер потока : 1,24 Кбайт (0%)
Заголовок : Forced
Язык : Russian
Default : Да
Forced : Нет

Текст #2
Идентификатор : 4
Формат : UTF-8
Идентификатор кодека : S_TEXT/UTF8
Идентификатор кодека/Информация : UTF-8 Plain Text
Продолжительность : 2 ч. 6 м.
Битрейт : 83 бит/сек
Count of elements : 1829
Размер потока : 77,5 Кбайт (0%)
Заголовок : Full
Язык : Russian
Default : Нет
Forced : Нет

Текст #3
Идентификатор : 5
Формат : UTF-8
Идентификатор кодека : S_TEXT/UTF8
Идентификатор кодека/Информация : UTF-8 Plain Text
Продолжительность : 2 ч. 5 м.
Битрейт : 56 бит/сек
Count of elements : 1957
Размер потока : 51,9 Кбайт (0%)
Заголовок : Full
Язык : English
Default : Нет
Forced : Нет

Текст #4
Идентификатор : 6
Формат : UTF-8
Идентификатор кодека : S_TEXT/UTF8
Идентификатор кодека/Информация : UTF-8 Plain Text
Продолжительность : 2 ч. 5 м.
Битрейт : 63 бит/сек
Count of elements : 2232
Размер потока : 58,5 Кбайт (0%)
Заголовок : SDH
Язык : English
Default : Нет
Forced : Нет

Меню
00:00:00.000 : en:Opening Credits
00:00:53.845 : en:Streets of Corellia
00:02:10.213 : en:Qi'ra
00:03:53.150 : en:Den of The White Worms
00:06:00.485 : en:Corellian Speeder Chase
00:09:27.567 : en:Coronet Spaceport
00:13:16.045 : en:Recruitment
00:14:14.020 : en:Mimban Battlefield
00:16:12.263 : en:None-of-Your-Business Company
00:19:45.101 : en:The Beast
00:22:43.821 : en:Mimban Escape
00:24:37.267 : en:Vandor
00:27:00.035 : en:Camfire Stories
00:30:02.926 : en:Conveyex Heist
00:32:54.681 : en:Marauder Attack
00:39:09.764 : en:"You're in This Life For Good"
00:41:59.225 : en:The Yacht
00:43:20.181 : en:Dryden Vos
00:44:32.128 : en:Reunion
00:48:03.756 : en:Deal with Crimson Dawn
00:51:58.324 : en:The Lodge
00:53:17.528 : en:Full Sabacc
00:57:23.523 : en:Lando and L3
01:00:16.780 : en:Millennium Falcon
01:02:40.882 : en:"Buckle Up, Baby"
01:04:51.262 : en:"People Are Predictable"
01:05:29.509 : en:Han and Qi'ra
01:07:12.028 : en:"Trust No One"
01:08:05.915 : en:Not Cpmpatible
01:10:00.113 : en:Arrival on Kessel
01:12:44.193 : en:Into the Mines
01:14:40.851 : en:Revolt
01:18:30.873 : en:Kessel Shootout
01:23:15.741 : en:Into the Maelstrom
01:26:32.646 : en:Kessel Run
01:30:33.136 : en:Escaping the Maw
01:35:19.672 : en:Savareen
01:37:04.861 : en:The Good Guy
01:38:52.802 : en:Marauders Return
01:41:18.531 : en:Enfys Nest
01:43:02.676 : en:One Last Score
01:45:27.821 : en:The Delivery
01:46:32.177 : en:Explosive Stuff
01:49:45.996 : en:Double-Crossings
01:53:33.890 : en:Duel with Dryden
01:57:13.902 : en:Secret Leader
01:58:55.128 : en:Showdown
02:01:34.829 : en:Rebellion's Dawn
02:03:20.893 : en:Sabacc Rematch
02:06:09.353 : en:End Credits
02:14:30.000 : en:HDChina












   Похожие торренты   Торрент   Размер 
В этой теме нет новых непрочитанных сообщений. Хан Соло: Звёздные Войны. Истории / Solo: A Star Wars Story (Рон Ховард) [2018, фантастика, фэнтези, боевик, приключения, BDRip] DUB / Фантастика

452 | 44

1.46 ГБ

В этой теме нет новых непрочитанных сообщений. Хан Соло: Звёздные Войны. Истории / Solo: A Star Wars Story (Рон Ховард) [2018, фантастика, фэнтези, боевик, приключения, BDRip-AVC] DUB / Фантастика

56 | 6

2.74 ГБ

В этой теме нет новых непрочитанных сообщений. Хан Соло: Звёздные Войны. Истории / Solo: A Star Wars Story (Рон Ховард) [2018, фантастика, фэнтези, боевик, приключения, BDRip] DUB / Фантастика

106 | 11

2.18 ГБ

В этой теме нет новых непрочитанных сообщений. Хан Соло: Звёздные Войны. Истории / Solo: A Star Wars Story (Рон Ховард) [2018, фантастика, фэнтези, боевик, приключения, BDRip] DUB / Фантастика

88 | 6

2.18 ГБ

В этой теме нет новых непрочитанных сообщений. Хан Соло: Звёздные Войны. Истории / Solo: A Star Wars Story (Рон Ховард) [2018, фантастика, фэнтези, боевик, приключения, HDRip] DUB / Фантастика

508 | 4

1.37 ГБ

В этой теме нет новых непрочитанных сообщений. Хан Соло: Звёздные Войны. Истории / Solo: A Star Wars Story (Рон Ховард) [2018, фантастика, фэнтези, боевик, приключения, HDRip] DUB / Фантастика

464 | 11

1.46 ГБ

В этой теме нет новых непрочитанных сообщений. Хан Соло: Звёздные Войны. Истории / Solo: A Star Wars Story (Рон Ховард) [2018, фантастика, фэнтези, боевик, приключения, HDRip-AVC] DUB / Фантастика

422 | 16

2.61 ГБ




Вы не можете начинать темы
Вы не можете отвечать на сообщения
Вы не можете редактировать свои сообщения
Вы не можете удалять свои сообщения
Вы не можете добавлять вложения

Перейти:  
 Вход
ppkBB3cker v.2 © 2008-2014 @ PPK
[ Time : 0.026s | 17 Queries | GZIP : Off ]

cron