img image001 image001 image001 image001 image001 image001 image001 image001 image001 image001 image001 image001 image001 image001 image001 image001

Planets Sun Sun Sun
Статистика раздачи
Автор: Снежана | Размер: 2.64 ГБ | Добавлен: 07 сен 2018
Раздают: 70    Качают: 6
Скачать торрент
Скачать торрент
Описание торрента

СообщениеДобавлено: 07 сен 2018 

Мир Юрского периода 2 / Jurassic World: Fallen Kingdom

Перевод: Профессиональный (полное дублирование) iTunes
Субтитры: Русские
Формат: WEB-DLRip-AVC, MKV, H.264, AC3
Страна: США
Режиссер: Хуан Антонио Байона
Жанр: фантастика, боевик, приключения
Продолжительность: 02:08:17
Год выпуска: 2018

В ролях: Крис Пратт, Брайс Даллас Ховард, Рейф Сполл, Джастис Смит, Даниэлла Пинеда, Джеймс Кромуэлл, Тоби Джонс, Тед Левайн, Джефф Голдблюм, Б.Д. Вонг

Описание: На острове Нублар, где не так давно располагался парк развлечений с динозаврами, правит бал дикая природа. Но без людей все далеко не так спокойно, как могло бы показаться. Основатели парка приняли решение построить его, несмотря на активный вулкан, расположенный в сердце острова. Вулкан пробудился и рискует утопить остров в лаве. Управляющая парком Клэр Дэринг уговаривает дрессировщика Оуэна Грэди вернуться в бывший парк и спасти динозавров от неминуемой гибели.



Видео: 1152x482 (2.40:1), 23.976 fps, AVC MPEG-4 (H.264), ~2125 kbps, 0.160 bit/pixel
Аудио #1: Русский: 48 kHz, AC3 Dolby Digital, 6 ch, ~384 kbps [Профессиональный (полное дублирование)]
Аудио #2: Английский: 48 kHz, AC3 Dolby Digital, 6 ch, ~384 kbps [Оригинал]

Формат : Matroska
Версия формата : Version 4 / Version 2
Размер файла : 2,64 Гбайт
Продолжительность : 2 ч. 8 м.
Общий поток : 2951 Кбит/сек
Название фильма : [Jurassic_World_Fallen_Kingdom_2018_All Films_by Dalemake]
Дата кодирования : UTC 2018-09-05 20:57:58
Программа кодирования : mkvmerge v7.8.0 ('River Man') 32bit built on Apr 3 2015 12:11:22
Библиотека кодирования : libebml v1.3.1 + libmatroska v1.4.2
DURATION : 01:56:23.403000000
NUMBER_OF_FRAMES : 1725
NUMBER_OF_BYTES : 64155
_STATISTICS_WRITING_APP : mkvmerge v7.8.0 ('River Man') 32bit built on Apr 3 2015 12:11:22
_STATISTICS_WRITING_DATE_UTC : 2018-09-05 20:57:58
_STATISTICS_TAGS : BPS DURATION NUMBER_OF_FRAMES NUMBER_OF_BYTES

Видео
Идентификатор : 1
Формат : AVC
Формат/Информация : Advanced Video Codec
Профиль формата :
Параметр CABAC формата : Да
Параметр ReFrames формата : 13 кадров
Идентификатор кодека : V_MPEG4/ISO/AVC
Продолжительность : 2 ч. 8 м.
Битрейт : 2125 Кбит/сек
Ширина : 1152 пикселя
Высота : 482 пикселя
Соотношение сторон : 2,40:1
Частота кадров : 23,976 кадра/сек
Цветовое пространство : YUV
Субдискретизация насыщенности : 4:2:0
Битовая глубина : 8 бит
Тип развёртки : Прогрессивная
Бит/(Пиксели*Кадры) : 0.160
Размер потока : 1,90 Гбайт (72%)
Заголовок : [Jurassic_World_Fallen_Kingdom_2018_All Films_by Dalemake]
Библиотека кодирования : x264 core 155 r2901 7d0ff22
Настройки программы : cabac=1 / ref=13 / deblock=1:-2:-2 / analyse=0x3:0x133 / me=umh / subme=10 / psy=1 / psy_rd=1.00:0.00 / mixed_ref=1 / me_range=48 / chroma_me=1 / trellis=2 / 8x8dct=1 / cqm=0 / deadzone=21,11 / fast_pskip=1 / chroma_qp_offset=-4 / threads=6 / lookahead_threads=1 / sliced_threads=0 / nr=0 / decimate=0 / interlaced=0 / bluray_compat=0 / constrained_intra=0 / bframes=11 / b_pyramid=2 / b_adapt=2 / b_bias=0 / direct=1 / weightb=1 / open_gop=0 / weightp=2 / keyint=240 / keyint_min=23 / scenecut=40 / intra_refresh=0 / rc_lookahead=60 / rc=crf / mbtree=0 / crf=18.2 / qcomp=0.60 / qpmin=0 / qpmax=69 / qpstep=4 / vbv_maxrate=50000 / vbv_bufsize=62500 / crf_max=0.0 / nal_hrd=none / filler=0 / ip_ratio=1.40 / pb_ratio=1.35 / aq=1:1.00
Язык : English
Default : Да
Forced : Нет
DURATION : 02:08:17.953000000
NUMBER_OF_FRAMES : 184566
NUMBER_OF_BYTES : 2098928625
_STATISTICS_WRITING_APP : mkvmerge v7.8.0 ('River Man') 32bit built on Apr 3 2015 12:11:22
_STATISTICS_WRITING_DATE_UTC : 2018-09-05 20:57:58
_STATISTICS_TAGS : BPS DURATION NUMBER_OF_FRAMES NUMBER_OF_BYTES

Аудио #1
Идентификатор : 2
Формат : AC-3
Формат/Информация : Audio Coding 3
Расширение режима : CM (complete main)
Параметр Endianness формата : Big
Идентификатор кодека : A_AC3
Продолжительность : 2 ч. 8 м.
Вид битрейта : Постоянный
Битрейт : 384 Кбит/сек
Каналы : 6 каналов
Расположение каналов : Front: L C R, Side: L R, LFE
Частота : 48,0 КГц
Битовая глубина : 16 бит
Метод сжатия : С потерями
Размер потока : 352 Мбайт (13%)
Заголовок : Dub - iTunes Russia
Язык : Russian
Default : Да
Forced : Нет

Аудио #2
Идентификатор : 3
Формат : AC-3
Формат/Информация : Audio Coding 3
Расширение режима : CM (complete main)
Параметр Endianness формата : Big
Идентификатор кодека : A_AC3
Продолжительность : 2 ч. 8 м.
Вид битрейта : Постоянный
Битрейт : 384 Кбит/сек
Каналы : 6 каналов
Расположение каналов : Front: L C R, Side: L R, LFE
Частота : 48,0 КГц
Битовая глубина : 16 бит
Метод сжатия : С потерями
Размер потока : 352 Мбайт (13%)
Заголовок : Original
Язык : English
Default : Нет
Forced : Нет

Текст
Идентификатор : 4
Формат : UTF-8
Идентификатор кодека : S_TEXT/UTF8
Идентификатор кодека/Информация : UTF-8 Plain Text
Заголовок : Full - Ruf
Язык : Russian
Default : Нет
Forced : Нет

Меню
00:00:00.000 : en:1
00:07:14.225 : en:2
00:12:02.554 : en:3
00:17:18.745 : en:4
00:21:18.191 : en:5
00:28:50.810 : en:6
00:35:05.684 : en:7
00:40:52.571 : en:8
00:46:33.495 : en:9
00:52:05.993 : en:10
01:01:00.192 : en:11
01:06:51.251 : en:12
01:11:08.632 : en:13
01:17:22.088 : en:14
01:26:56.202 : en:15
01:33:02.484 : en:16
01:42:56.870 : en:17
01:50:02.545 : en:18
01:54:57.213 : en:19
01:58:38.975 : en:20












   Похожие торренты   Торрент   Размер 
В этой теме нет новых непрочитанных сообщений. Мир Юрского периода 2 / Jurassic World: Fallen Kingdom (Хуан Антонио Байона) [2018, фантастика, боевик, приключения, WEB-DLRip] DUB

319 | 11

2.18 ГБ

В этой теме нет новых непрочитанных сообщений. Мир Юрского периода 2 / Jurassic World: Fallen Kingdom (Хуан Антонио Байона) [2018, фантастика, боевик, приключения, WEB-DLRip-AVC] DUB

62 | 3

1.46 ГБ

В этой теме нет новых непрочитанных сообщений. Мир Юрского периода 2 / Jurassic World: Fallen Kingdom (Хуан Антонио Байона) [2018, фантастика, боевик, приключения, WEB-DLRip] DUB

435 | 25

1.46 ГБ

В этой теме нет новых непрочитанных сообщений. Мир Юрского периода 2 / Jurassic World: Fallen Kingdom (Хуан Антонио Байона) [2018, фантастика, боевик, приключения, TeleSynch] DUB

110 | 0

2.02 ГБ

В этой теме нет новых непрочитанных сообщений. Мир Юрского периода 2 / Jurassic World: Fallen Kingdom (Хуан Антонио Байона) [2018, фантастика, боевик, приключения, HDTVRip] MVO

118 | 0

1.37 ГБ

В этой теме нет новых непрочитанных сообщений. Мир Юрского периода 2 / Jurassic World: Fallen Kingdom (Хуан Антонио Байона) [2018, фантастика, боевик, приключения, HDTVRip] DUB

108 | 0

2.05 ГБ

В этой теме нет новых непрочитанных сообщений. Мир Юрского периода 2 / Jurassic World: Fallen Kingdom (Хуан Антонио Байона) [2018, фантастика, боевик, приключения, HDTVRip] DUB

607 | 1

1.37 ГБ




Вы не можете начинать темы
Вы не можете отвечать на сообщения
Вы не можете редактировать свои сообщения
Вы не можете удалять свои сообщения
Вы не можете добавлять вложения

Перейти:  
 Вход
ppkBB3cker v.2 © 2008-2014 @ PPK
[ Time : 0.020s | 17 Queries | GZIP : Off ]

cron