img image001 image001 image001 image001 image001 image001 image001 image001 image001 image001 image001 image001 image001 image001 image001 image001

Planets Sun Sun Sun
Статистика раздачи
Автор: Снежана | Размер: 8.02 ГБ | Добавлен: 14 авг 2018
Раздают: 80    Качают: 17
Скачать торрент
Скачать торрент
Описание торрента

СообщениеДобавлено: 14 авг 2018 

Информация о фильме
Название: Точка отрыва
Оригинальное название: Action Point
Год выхода: 2018
Жанр: Комедия
Режиссер: Тим Киркби
В ролях: Джонни Ноксвилл, Сьюзэн Йигли, Крис Понтиус, Бригитт Ланди-Пейн, Джонни Пембертон, Дэн Баккедаль, Элинор Вортингтон-Кокс, Дэна Шик, Джошуа Хувер, Коннер МакВикер

О фильме: История безрассудного парня, который решает претворить в жизнь свой амбициозный проект. Собрав команду таких же сумасбродов, он конструирует и открывает совершенно особенный парк развлечений. К какой-то катастрофе это приведет?
Страна: США
Студия: Gerber Pictures, Paramount Pictures
Продолжительность: 01:24:37
Перевод: Дублированный | Лицензия
Качество: BDRip 1080p
Видео: MPEG-4 AVC, 1920x800, 12.3 Mbit/s, 23.976 fps
Звук:
Аудио #01: 48 kHz, AC3, 5.1, 640 Kbps | Лицензия | RUS |
Аудио #02: 48 kHz, AC3, 5.1, 640 Kbps | Оригинал | ENG |
Субтитры: Русские (full), английские

General
Unique ID : 197050152027144931177698826432630581171 (0x943E7A94D548F8E1A2374230809D67B3)
Complete name : D:Video111Action.Point.2018.BDRip.1080p.ExKinoRay.mkv
Format : Matroska
Format version : Version 4 / Version 2
File size : 8.02 GiB
Duration : 1 h 24 min
Overall bit rate : 13.6 Mb/s
Movie name : Action Point 2018 from ExKinoRay
Encoded date : UTC 2018-08-13 05:43:56
Writing application : mkvmerge v7.3.0 ('Nouages') 64bit built on Oct 22 2014 18:53:34
Writing library : libebml v1.3.0 + libmatroska v1.4.1
Video
ID : 1
Format : AVC
Format/Info : Advanced Video Codec
Format profile : High@L4.1
Format settings : CABAC / 5 Ref Frames
Format settings, CABAC : Yes
Format settings, ReFrames : 5 frames
Codec ID : V_MPEG4/ISO/AVC
Duration : 1 h 24 min
Bit rate : 12.3 Mb/s
Width : 1 920 pixels
Height : 800 pixels
Display aspect ratio : 2.40:1
Frame rate mode : Constant
Frame rate : 23.976 (24000/1001) FPS
Color space : YUV
Chroma subsampling : 4:2:0
Bit depth : 8 bits
Scan type : Progressive
Bits/(Pixel*Frame) : 0.334
Stream size : 7.27 GiB (91%)
Writing library : x264 core 148 r2705 3f5ed56
Encoding settings : cabac=1 / ref=5 / deblock=1:-2:-2 / analyse=0x3:0x133 / me=umh / subme=11 / psy=1 / psy_rd=1.20:0.05 / mixed_ref=1 / me_range=48 / chroma_me=1 / trellis=2 / 8x8dct=1 / cqm=0 / deadzone=21,11 / fast_pskip=0 / chroma_qp_offset=-3 / threads=12 / lookahead_threads=2 / sliced_threads=0 / nr=0 / decimate=0 / interlaced=0 / bluray_compat=0 / constrained_intra=0 / bframes=8 / b_pyramid=2 / b_adapt=2 / b_bias=0 / direct=3 / weightb=1 / open_gop=0 / weightp=2 / keyint=240 / keyint_min=23 / scenecut=40 / intra_refresh=0 / rc_lookahead=50 / rc=2pass / mbtree=0 / bitrate=12300 / ratetol=1.0 / qcomp=0.60 / qpmin=0 / qpmax=51 / qpstep=4 / cplxblur=20.0 / qblur=0.5 / vbv_maxrate=50000 / vbv_bufsize=62500 / nal_hrd=none / filler=0 / ip_ratio=1.40 / pb_ratio=1.30 / aq=3:0.80
Language : English
Default : Yes
Forced : No
Audio #1
ID : 2
Format : AC-3
Format/Info : Audio Coding 3
Commercial name : Dolby Digital
Codec ID : A_AC3
Duration : 1 h 24 min
Bit rate mode : Constant
Bit rate : 640 kb/s
Channel(s) : 6 channels
Channel positions : Front: L C R, Side: L R, LFE
Sampling rate : 48.0 kHz
Frame rate : 31.250 FPS (1536 SPF)
Bit depth : 16 bits
Compression mode : Lossy
Stream size : 387 MiB (5%)
Title : Dub [License]
Language : Russian
Service kind : Complete Main
Default : Yes
Forced : Yes
Audio #2
ID : 3
Format : AC-3
Format/Info : Audio Coding 3
Commercial name : Dolby Digital
Codec ID : A_AC3
Duration : 1 h 24 min
Bit rate mode : Constant
Bit rate : 640 kb/s
Channel(s) : 6 channels
Channel positions : Front: L C R, Side: L R, LFE
Sampling rate : 48.0 kHz
Frame rate : 31.250 FPS (1536 SPF)
Bit depth : 16 bits
Compression mode : Lossy
Stream size : 387 MiB (5%)
Title : Original
Language : English
Service kind : Complete Main
Default : No
Forced : No
Text #1
ID : 4
Format : UTF-8
Codec ID : S_TEXT/UTF8
Codec ID/Info : UTF-8 Plain Text
Duration : 1 h 23 min
Bit rate : 101 b/s
Count of elements : 1139
Stream size : 62.1 KiB (0%)
Title : Full
Language : Russian
Default : No
Forced : No
Text #2
ID : 5
Format : UTF-8
Codec ID : S_TEXT/UTF8
Codec ID/Info : UTF-8 Plain Text
Duration : 1 h 17 min
Bit rate : 63 b/s
Count of elements : 1137
Stream size : 36.1 KiB (0%)
Title : Full
Language : English
Default : No
Forced : No
Text #3
ID : 6
Format : UTF-8
Codec ID : S_TEXT/UTF8
Codec ID/Info : UTF-8 Plain Text
Duration : 1 h 24 min
Bit rate : 65 b/s
Count of elements : 1273
Stream size : 40.6 KiB (0%)
Title : SDH
Language : English
Default : No
Forced : No
Menu
00:00:00.000 : en:Chapter 1
00:13:22.218 : en:Chapter 2
00:20:20.219 : en:Chapter 3
00:27:39.867 : en:Chapter 4
00:36:38.446 : en:Chapter 5
00:44:15.528 : en:Chapter 6
00:51:59.408 : en:Chapter 7
00:57:39.539 : en:Chapter 8
01:05:17.038 : en:Chapter 9
01:14:09.236 : en:Chapter 10

Релиз от:
Автор релиза:



   Похожие торренты   Торрент   Размер 
В этой теме нет новых непрочитанных сообщений. Точка отрыва / Action Point (2018) BDRip от ExKinoRay | Лицензия

176 | 4

1.46 ГБ

В этой теме нет новых непрочитанных сообщений. Точка отрыва / Action Point (2018) HDRip от Generalfilm | КПК | Лицензия

44 | 11

321.9 МБ

В этой теме нет новых непрочитанных сообщений. Точка отрыва / Action Point (Тим Киркби) [2018, комедия, BDRip-AVC] DUB

124 | 10

1.45 ГБ

В этой теме нет новых непрочитанных сообщений. Точка отрыва / Action Point (Тим Киркби) [2018, комедия, HDRip] DUB

188 | 3

1.37 ГБ

В этой теме нет новых непрочитанных сообщений. Убийца / Точка невозврата / Point of No Return (1993) BDRip-AVC от ExKinoRay | D

43 | 0

745.71 МБ

В этой теме нет новых непрочитанных сообщений. Точка R / R-Point (2004) BDRip 1080p by msltel | A

92 | 20

14.41 ГБ

В этой теме нет новых непрочитанных сообщений. Точка невозврата / Убийца / Point of No Return (1993) BDRip 1080p | D, A

20 | 8

13.84 ГБ




Вы не можете начинать темы
Вы не можете отвечать на сообщения
Вы не можете редактировать свои сообщения
Вы не можете удалять свои сообщения
Вы не можете добавлять вложения

Перейти:  
 Вход
ppkBB3cker v.2 © 2008-2014 @ PPK
[ Time : 0.039s | 16 Queries | GZIP : Off ]

cron