img image001 image001 image001 image001 image001 image001 image001 image001 image001 image001 image001 image001 image001 image001 image001 image001

Planets Sun Sun Sun
Статистика раздачи
Автор: Снежана | Размер: 2.18 ГБ | Добавлен: 09 авг 2018
Раздают: 3    Качают: 1
Скачать торрент
Скачать торрент
Описание торрента

СообщениеДобавлено: 09 авг 2018 

Майор Пэйн / Major Payne

Перевод: Профессиональный (многоголосый, закадровый) iTunes
Субтитры: Русские
Формат: BDRip-AVC, MKV, H.264, AAC/AC3
Страна: США
Режиссер: Ник Касл
Жанр: комедия, приключения
Продолжительность: 01:37:01
Год выпуска: 1995

В ролях: Дэймон Уайанс, Майкл Айронсайд, Скотт Бигелоу, Йода Блэйр, Орландо Браун, Пейтон Чессон-Фол, Стивен Коулмэн, Марк Конуэй, Дэвид ДиХарт, Джошуа Тодд Дивели

Описание: Майору никак не присвоят звание полковника по одной причине — он умеет только убивать, ни на что другое он просто не способен. Его отправляют в отставку. Работа в полиции ему не подходит, и наш герой умирает от скуки в одном из номеров отеля.
Неожиданно он получает предложение стать инструктором по военной подготовке в военном учебном заведении. О том, как сложатся отношения «жестокосердного солдафона» с юными подопечными и одной весьма привлекательной преподавательницей рассказывает эта веселая комедия, полная забавных шуток и смешных ситуаций.




Видео: 1042x562p (1.85:1), 23.976 fps, AVC MPEG-4 (H.264), ~2608 kbps, 0.186 bit/pixel
Аудио #1: Русский: 48 kHz, AАС-LC, 2 ch, ~157 kbps [Профессиональный (многоголосый, закадровый)]
Аудио #2: Русский: 48 kHz, AC3 Dolby Digital, 6 ch, ~448 kbps [Профессиональный (двухголосый)] НТВ

Format : Matroska
Format version : Version 4 / Version 2
File size : 2.18 GiB
Duration : 1 h 37 min
Overall bit rate : 3 214 kb/s

Video
ID : 1
Format : AVC
Format/Info : Advanced Video Codec
Format profile :
Format settings : CABAC / 12 Ref Frames
Format settings, CABAC : Yes
Format settings, ReFrames : 12 frames
Codec ID : V_MPEG4/ISO/AVC
Duration : 1 h 36 min
Bit rate : 2 608 kb/s
Width : 1 042 pixels
Height : 562 pixels
Display aspect ratio : 1.85:1
Frame rate mode : Constant
Frame rate : 23.976 (24000/1001) FPS
Color space : YUV
Chroma subsampling : 4:2:0
Bit depth : 8 bits
Scan type : Progressive
Bits/(Pixel*Frame) : 0.186
Stream size : 1.77 GiB (81%)
Title : RIP_BY_-=DoMiNo=-
Writing library : x264 core 155 r2901M 7d0ff22
Encoding settings : cabac=1 / ref=12 / deblock=1:-1:-1 / analyse=0x3:0x133 / me=umh / subme=11 / psy=1 / psy_rd=1.00:0.00 / mixed_ref=1 / me_range=32 / chroma_me=1 / trellis=2 / 8x8dct=1 / cqm=0 / deadzone=21,11 / fast_pskip=0 / chroma_qp_offset=-2 / threads=6 / lookahead_threads=1 / sliced_threads=0 / nr=0 / decimate=1 / interlaced=0 / bluray_compat=0 / constrained_intra=0 / bframes=12 / b_pyramid=2 / b_adapt=2 / b_bias=0 / direct=3 / weightb=1 / open_gop=0 / weightp=2 / keyint=240 / keyint_min=24 / scenecut=40 / intra_refresh=0 / rc=2pass / mbtree=0 / bitrate=2608 / ratetol=1.0 / qcomp=0.60 / qpmin=0 / qpmax=69 / qpstep=4 / cplxblur=20.0 / qblur=0.5 / ip_ratio=1.40 / pb_ratio=1.30 / aq=3:0.85
Language : English
Default : Yes
Forced : No

Audio #1
ID : 2
Format : AAC
Format/Info : Advanced Audio Codec
Format profile : LC
Codec ID : A_AAC-2
Duration : 1 h 37 min
Bit rate : 157 kb/s
Channel(s) : 2 channels
Channel positions : Front: L R
Sampling rate : 48.0 kHz
Frame rate : 46.875 FPS (1024 SPF)
Compression mode : Lossy
Stream size : 109 MiB (5%)
Title : AAC 2.0 160Kbps (Профессиональный, многоголосый - iTunes, Шестой канал по заказу СТС)
Language : Russian
Default : Yes
Forced : No

Audio #2
ID : 3
Format : AC-3
Format/Info : Audio Coding 3
Codec ID : A_AC3
Duration : 1 h 37 min
Bit rate mode : Constant
Bit rate : 448 kb/s
Channel(s) : 6 channels
Channel positions : Front: L C R, Side: L R, LFE
Sampling rate : 48.0 kHz
Frame rate : 31.250 FPS (1536 SPF)
Bit depth : 16 bits
Compression mode : Lossy
Stream size : 311 MiB (14%)
Title : AC3 5.1 448Kbps (Профессиональный, многоголосый - НТВ+)
Language : Russian
Service kind : Complete Main
Default : No
Forced : No

Text #1
ID : 4
Format : UTF-8
Codec ID : S_TEXT/UTF8
Codec ID/Info : UTF-8 Plain Text
Duration : 1 h 16 min
Bit rate : 0 b/s
Count of elements : 6
Stream size : 350 Bytes (0%)
Title : Надписи, iTunes
Language : Russian
Default : Yes
Forced : Yes

Text #2
ID : 5
Format : UTF-8
Codec ID : S_TEXT/UTF8
Codec ID/Info : UTF-8 Plain Text
Duration : 1 h 32 min
Bit rate : 98 b/s
Count of elements : 1204
Stream size : 66.1 KiB (0%)
Title : Полные
Language : Russian
Default : No
Forced : No

Menu
00:00:00.000 : :Main Titles
00:04:28.979 : :Hungry for Action
00:07:32.979 : :Madison School
00:10:45.979 : :The Green Boys
00:23:29.979 : :The House of Payne
00:26:45.979 : :A Killer Cupcake
00:33:16.979 : :The Dress Parade
00:41:24.979 : :The Giant Killer
00:48:32.979 : :A Black Op
00:50:28.979 : :A Bedtime Story
00:57:28.979 : :Cuttin' a Rug
00:58:50.979 : :A Wellington Beef
01:05:24.979 : :Parent's Day
01:17:28.979 : :Military Games
01:24:00.979 : :Payne's Boys
01:27:17.979 : :Bustin' a Move
01:31:01.979 : :The Cadet's Pet
01:33:25.979 : :End Titles












   Похожие торренты   Торрент   Размер 
В этой теме нет новых непрочитанных сообщений. Майор Пэйн / Major Payne (Ник Касл) [1995, комедия, приключения, LowHDRip-AVC] MVO

16 | 1

743.37 МБ

В этой теме нет новых непрочитанных сообщений. Майор Пэйн / Major Payne (1995) HDRip от Scarabey | P

496 | 26

1.45 ГБ

В этой теме нет новых непрочитанных сообщений. Майор Пэйн / Major Payne (1995) HDRip от Scarabey | P

109 | 12

744.07 МБ

В этой теме нет новых непрочитанных сообщений. Майор Пэйн / Major Payne (1995) BDRip от HQCLUB

13 | 0

2.18 ГБ

В этой теме нет новых непрочитанных сообщений. Майор Пэйн / Major Payne (1995) BDRip 1080p HDReactor | P, P2, P1, A

6 | 0

11.65 ГБ

В этой теме нет новых непрочитанных сообщений. Майор Пэйн / Major Payne (1995) WEB-DL 1080p | P, P2, A

53 | 28

11.71 ГБ

В этой теме нет новых непрочитанных сообщений. Майор Пэйн / Major Payne (1995) WEB-DLRip | P

220 | 33

1.45 ГБ




Вы не можете начинать темы
Вы не можете отвечать на сообщения
Вы не можете редактировать свои сообщения
Вы не можете удалять свои сообщения
Вы не можете добавлять вложения

Перейти:  
 Вход
ppkBB3cker v.2 © 2008-2014 @ PPK
[ Time : 0.039s | 15 Queries | GZIP : Off ]

cron