img image001 image001 image001 image001 image001 image001 image001 image001 image001 image001 image001 image001 image001 image001 image001 image001

Planets Sun Sun Sun
Статистика раздачи
Автор: Снежана | Размер: 2.18 ГБ | Добавлен: 08 авг 2018
Раздают: 14    Качают: 0
Скачать торрент
Скачать торрент
Описание торрента

СообщениеДобавлено: 08 авг 2018 

Бои без правил / A Prayer Before Dawn


Перевод: Профессиональный (многоголосый закадровый) HDRezka Studio
Субтитры: Английские (полные, SDH)
Формат: WEBDLRip-AVC, MKV, H.264, AC3
Страна: Франция, Великобритания, Камбоджа, США, Китай
Режиссер: Жан-Стефан Совер
Жанр: боевик, драма, криминал, биография, спорт
Продолжительность: 01:56:43
Год выпуска: 2017
В ролях: Джо Коул, Витхая Пансрингарм, Паня Йиммумрхай, Порнчанок Мабкланг, Николас Шейк, Билли Мур, Сура Сирмалай, Сакда Ниамхом, Сомлок Камсинг, Чалоемпорн Саватсук

Описание: Молодой британец Билли Мур попадает в одну из тюрем Таиланда, известную своей жестокостью и невыносимыми условиями для заключённых. Чтобы выжить, Билли решает заняться муай-тай - тайским боксом, одним из самых жёстких видов боевых искусств.



Видео: 1024x428 (2.40:1), 23.976 fps, AVC MPEG-4 (H.264), ~2094 kbps, 0.169 bit/pixel
Аудио #1: Русский:48 kHz, AC3 Dolby Digital, 2 (L,R) ch, ~192.00 kbps avg [Профессиональный (многоголосый, закадровый]
Аудио #2: Английский:48 kHz, AC3 Dolby Digital Plus, 3/2 (L,C,R,l,r) + LFE ch, ~384.00 kbps avg [Оригинал]

General
Unique ID : 112144917746566077885418548323446176037 (0x545E535545996EAC1CCFA6A6752C3925)
Complete name : C:\Users\Юрик\Downloads\A.Prayer.Before.Dawn.2017.WEB-DLRip(AVC)_[tfile.ru].mkv
Format : Matroska
Format version : Version 4 / Version 2
File size : 2.18 GiB
Duration : 1h 56mn
Overall bit rate : 2 672 Kbps
Movie name : A.Prayer.Before.Dawn.2017 #TorpedoUK#
Encoded date : UTC 2018-08-03 10:03:33
Writing application : mkvmerge v25.0.0 ('Prog Noir') 64-bit
Writing library : libebml v1.3.6 + libmatroska v1.4.9
DURATION : 01:52:32.956000000
NUMBER_OF_FRAMES : 566
NUMBER_OF_BYTES : 12204
_STATISTICS_WRITING_APP : mkvmerge v25.0.0 ('Prog Noir') 64-bit
_STATISTICS_WRITING_DATE_UTC : 2018-08-03 10:03:33
_STATISTICS_TAGS : BPS DURATION NUMBER_OF_FRAMES NUMBER_OF_BYTES

Video
ID : 1
Format : AVC
Format/Info : Advanced Video Codec
Format profile :
Format settings, CABAC : Yes
Format settings, ReFrames : 10 frames
Codec ID : V_MPEG4/ISO/AVC
Duration : 1h 56mn
Bit rate : 2 094 Kbps
Width : 1 024 pixels
Height : 428 pixels
Display aspect ratio : 2.40:1
Frame rate mode : Constant
Frame rate : 23.976 fps
Color space : YUV
Chroma subsampling : 4:2:0
Bit depth : 8 bits
Scan type : Progressive
Bits/(Pixel*Frame) : 0.199
Stream size : 1.67 GiB (76%)
Writing library : x264 core 146 r2538 121396c
Encoding settings : cabac=1 / ref=10 / deblock=1:-3:-3 / analyse=0x3:0x113 / me=umh / subme=11 / psy=1 / psy_rd=0.97:0.05 / mixed_ref=1 / me_range=48 / chroma_me=1 / trellis=2 / 8x8dct=1 / cqm=0 / deadzone=21,11 / fast_pskip=1 / chroma_qp_offset=-3 / threads=6 / lookahead_threads=1 / sliced_threads=0 / nr=0 / decimate=1 / interlaced=0 / bluray_compat=0 / constrained_intra=0 / bframes=10 / b_pyramid=2 / b_adapt=2 / b_bias=0 / direct=3 / weightb=1 / open_gop=0 / weightp=2 / keyint=240 / keyint_min=23 / scenecut=40 / intra_refresh=0 / rc_lookahead=40 / rc=2pass / mbtree=1 / bitrate=2094 / ratetol=1.0 / qcomp=0.60 / qpmin=0 / qpmax=69 / qpstep=4 / cplxblur=20.0 / qblur=0.5 / vbv_maxrate=50000 / vbv_bufsize=62500 / nal_hrd=none / filler=0 / ip_ratio=1.40 / aq=1:1.00
Default : Yes
Forced : No

Audio #1
ID : 2
Format : AC-3
Format/Info : Audio Coding 3
Mode extension : CM (complete main)
Format settings, Endianness : Big
Codec ID : A_AC3
Duration : 1h 56mn
Bit rate mode : Constant
Bit rate : 192 Kbps
Channel(s) : 2 channels
Channel positions : Front: L R
Sampling rate : 48.0 KHz
Compression mode : Lossy
Stream size : 160 MiB (7%)
Title : MVO [HDRezka Studio]
Language : Russian
Default : Yes
Forced : No

Audio #2
ID : 3
Format : AC-3
Format/Info : Audio Coding 3
Mode extension : CM (complete main)
Format settings, Endianness : Big
Codec ID : A_AC3
Duration : 1h 56mn
Bit rate mode : Constant
Bit rate : 384 Kbps
Channel(s) : 6 channels
Channel positions : Front: L C R, Side: L R, LFE
Sampling rate : 48.0 KHz
Compression mode : Lossy
Stream size : 321 MiB (14%)
Title : Original
Language : English
Default : No
Forced : No

Text #1
ID : 4
Format : UTF-8
Codec ID : S_TEXT/UTF8
Codec ID/Info : UTF-8 Plain Text
Title : Full
Language : English
Default : No
Forced : No

Text #2
ID : 5
Format : UTF-8
Codec ID : S_TEXT/UTF8
Codec ID/Info : UTF-8 Plain Text
Title : SDH
Language : English
Default : No
Forced : No

Menu
00:00:00.000 : en:Chapter 1
00:18:15.136 : en:Chapter 2
00:44:39.970 : en:Chapter 3
01:05:21.002 : en:Chapter 4
01:28:04.532 : en:Chapter 5
01:53:22.091 : en:Chapter 6















   Похожие торренты   Торрент   Размер 
В этой теме нет новых непрочитанных сообщений. Предрассветная молитва / A Prayer Before Dawn ( Жан-Стефан Совер) [2017, боевик, драма, криминал, биография, спорт, WEBDLRip] MVO / Боевики /Action

10 | 6

1.97 ГБ

В этой теме нет новых непрочитанных сообщений. Бои без правил / A Prayer Before Dawn (Жан-Стефан Совер ) [2017, боевик, драма, криминал, биография, спорт , BDRip] DUB

21 | 5

1.45 ГБ

В этой теме нет новых непрочитанных сообщений. Бои без правил / Предрассветная молитва / A Prayer Before Dawn (Жан-Стефан Совер) [2017, боевик, драма, криминал, биография, спорт, BDRip] DUB

42 | 2

2.13 ГБ

В этой теме нет новых непрочитанных сообщений. Бои без правил / Предрассветная молитва / A Prayer Before Dawn (Жан-Стефан Совер) [2017, боевик, драма, криминал, биография, спорт, LowHDRip] MVO

16 | 2

745.19 МБ

В этой теме нет новых непрочитанных сообщений. Бои без правил / Предрассветная молитва / A Prayer Before Dawn (Жан-Стефан Совер) [2017, боевик, драма, криминал, биография, спорт, BDRip] MVO

55 | 0

1.46 ГБ

В этой теме нет новых непрочитанных сообщений. Бои без правил / Предрассветная молитва / A Prayer Before Dawn (Жан-Стефан Совер) [2017, боевик, драма, криминал, биография, спорт, WEB-DLRip] MVO

88 | 2

1.46 ГБ

В этой теме нет новых непрочитанных сообщений. Бои без правил / Предрассветная молитва / A Prayer Before Dawn (Жан-Стефан Совер) [2017, боевик, драма, криминал, биография, спорт, BDRip-AVC] DUB+MVO

18 | 0

2.31 ГБ




Вы не можете начинать темы
Вы не можете отвечать на сообщения
Вы не можете редактировать свои сообщения
Вы не можете удалять свои сообщения
Вы не можете добавлять вложения

Перейти:  
 Вход
ppkBB3cker v.2 © 2008-2014 @ PPK
[ Time : 0.038s | 16 Queries | GZIP : Off ]

cron