img image001 image001 image001 image001 image001 image001 image001 image001 image001 image001 image001 image001 image001 image001 image001 image001

Planets Sun Sun Sun
Статистика раздачи
Автор: Снежана | Размер: 2.9 ГБ | Добавлен: 19 июл 2018
Раздают: 9    Качают: 0
Скачать торрент
Скачать торрент
Описание торрента

СообщениеДобавлено: 19 июл 2018 

Перст любви / L'annulaire


Перевод: Профессиональный (многоголосый закадровый) R5 от «Настроение Video», субтитры: английские
Формат: DVDRip-AVC, MKV, H.264, AC3
Страна: Франция, Германия, Великобритания
Режиссер: Диана Бертран
Жанр: драма
Продолжительность: 01:40:10
Год выпуска: 2005
В ролях:
Ольга Куриленко, Марк Барбе, Стипе Эрцег, Эдит Скоб, Ханнс Цишлер, Сотиги Куяте, Дория Ашур, Анн Бенуа, Луис Девинтер, Анна Фассио
Описание:
Потеряв работу, юная и прекрасная Ирис получает должность ассистентки в очень необычной лаборатории. Не отдавая себе отчета в происходящем, она вовлекается в странные отношения со своим боссом, полные эротизма, страсти и мистики…




Видео: 1020x432 (2.35:1), 25 fps, AVC MPEG-4 (H.264), ~3500 kbps, 0.318 bit/pixel
Аудио№1: Русский: 48 kHz, AC3 Dolby Digital, 6 ch, ~448 kbps [Профессиональный (многоголосый закадровый)]
Аудио№2: Французский: 48 kHz, AC3 Dolby Digital, 2/0 (L,R) ch, ~192 kbps [Оригинал]
Общее
Уникальный идентификатор : 185354022886756088605427994696692638308 (0x8B71E2E47E2ACFF7A4B7568FB871A264)
Полное имя : M:\Перст любви (L'annulaire) 2005 DVDRip.mkv
Формат : Matroska
Версия формата : Version 2
Размер файла : 2,90 Гбайт
Продолжительность : 1 ч. 40 м.
Общий поток : 4142 Кбит/сек
Дата кодирования : UTC 2018-06-14 07:37:59
Программа кодирования : mkvmerge v4.0.0 ('The Stars were mine') сборка от Jun 6 2010 16:18:42
Библиотека кодирования : libebml v1.0.0 + libmatroska v1.0.0

Видео
Идентификатор : 1
Формат : AVC
Формат/Информация : Advanced Video Codec
Профиль формата :
Настройки формата : CABAC / 12 Ref Frames
Параметр CABAC формата : Да
Параметр RefFrames формата : 12 кадров
Идентификатор кодека : V_MPEG4/ISO/AVC
Продолжительность : 1 ч. 40 м.
Битрейт : 3500 Кбит/сек
Ширина : 1020 пикселей
Высота : 432 пикселя
Соотношение сторон : 2,35:1
Режим частоты кадров : Постоянный
Частота кадров : 25,000 кадров/сек
Цветовое пространство : YUV
Субдискретизация насыщенности : 4:2:0
Битовая глубина : 8 бит
Тип развёртки : Прогрессивная
Бит/(Пиксели*Кадры) : 0.318
Размер потока : 2,39 Гбайт (83%)
Библиотека кодирования : x264 core 146 r2538 121396c
Настройки программы : cabac=1 / ref=12 / deblock=1:-1:-1 / analyse=0x3:0x133 / me=umh / subme=11 / psy=1 / psy_rd=1.00:0.00 / mixed_ref=1 / me_range=32 / chroma_me=1 / trellis=2 / 8x8dct=1 / cqm=0 / deadzone=21,11 / fast_pskip=0 / chroma_qp_offset=-2 / threads=12 / lookahead_threads=2 / sliced_threads=0 / nr=0 / decimate=0 / interlaced=0 / bluray_compat=0 / constrained_intra=0 / bframes=10 / b_pyramid=2 / b_adapt=2 / b_bias=0 / direct=3 / weightb=1 / open_gop=0 / weightp=2 / keyint=250 / keyint_min=25 / scenecut=40 / intra_refresh=0 / rc=2pass / mbtree=0 / bitrate=3500 / ratetol=1.0 / qcomp=0.60 / qpmin=0 / qpmax=69 / qpstep=4 / cplxblur=20.0 / qblur=0.5 / ip_ratio=1.40 / pb_ratio=1.30 / aq=1:0.80
Язык : French
Default : Нет
Forced : Нет

Аудио #1
Идентификатор : 2
Формат : AC-3
Формат/Информация : Audio Coding 3
Идентификатор кодека : A_AC3
Продолжительность : 1 ч. 40 м.
Вид битрейта : Постоянный
Битрейт : 448 Кбит/сек
Каналы : 6 каналов
Расположение каналов : Front: L C R, Side: L R, LFE
Частота : 48,0 КГц
Частота кадров : 31,250 кадров/сек (1536 SPF)
Битовая глубина : 16 бит
Метод сжатия : С потерями
Размер потока : 321 Мбайт (11%)
Заголовок : MVO R5 «Настроение Video»
Язык : Russian
ServiceKind/String : Complete Main
Default : Нет
Forced : Нет

Аудио #2
Идентификатор : 3
Формат : AC-3
Формат/Информация : Audio Coding 3
Идентификатор кодека : A_AC3
Продолжительность : 1 ч. 40 м.
Вид битрейта : Постоянный
Битрейт : 192 Кбит/сек
Каналы : 2 канала
Расположение каналов : Front: L R
Частота : 48,0 КГц
Частота кадров : 31,250 кадров/сек (1536 SPF)
Битовая глубина : 16 бит
Метод сжатия : С потерями
Размер потока : 138 Мбайт (5%)
Язык : French
ServiceKind/String : Complete Main
Default : Нет
Forced : Нет

Текст
Идентификатор : 4
Формат : UTF-8
Идентификатор кодека : S_TEXT/UTF8
Идентификатор кодека/Информация : UTF-8 Plain Text
Язык : English
Default : Нет
Forced : Нет

Меню
00:00:00.080 : en:Chapter 01
00:09:55.760 : en:Chapter 02
00:19:48.080 : en:Chapter 03
00:28:50.960 : en:Chapter 04
00:35:48.080 : en:Chapter 05
00:44:10.160 : en:Chapter 06
00:51:37.040 : en:Chapter 07
01:00:58.160 : en:Chapter 08
01:07:53.360 : en:Chapter 09
01:17:23.120 : en:Chapter 10
01:22:04.880 : en:Chapter 11
01:36:50.000 : en:Chapter 12


Трейлеры:









   Похожие торренты   Торрент   Размер 
В этой теме нет новых непрочитанных сообщений. Перст любви / L'annulaire (2005) DVDRip | P

290 | 33

1.36 ГБ

В этой теме нет новых непрочитанных сообщений. Диана: История любви / Diana (2013) HDRip от Scarabey | Лицензия

350 | 11

1.45 ГБ

В этой теме нет новых непрочитанных сообщений. Диана: История любви / Diana (2013) HDRip от Scarabey | Лицензия

19 | 14

751.82 МБ

В этой теме нет новых непрочитанных сообщений. Трасса 60 / Interstate 60 (Боб Гэйл) [2002, фэнтези, драма, комедия, приключения, DVDRip-AVC] MVO + AVO / Фильмы HDRip

1 | 0

2.89 ГБ

В этой теме нет новых непрочитанных сообщений. Жизнь начинается / Une vie qui commence / Life Begins (Мишель Монти) [2010, драма, DVDRip-AVC] VO / Фильмы HDRip

2 | 3

2.08 ГБ

В этой теме нет новых непрочитанных сообщений. Общество мертвых поэтов / Dead Poets Society (Питер Уир) [1989, драма, комедия, HDRip-AVC] DUB+MVO+DVO+AVO / Фильмы HDRip

2 | 0

3.4 ГБ

В этой теме нет новых непрочитанных сообщений. Джона Хекс / Jonah Hex (Джимми Хейуорд) [2010, боевик, триллер, драма, вестерн, HDRip-AVC] MVO / Фильмы HDRip

21 | 3

2.19 ГБ




Вы не можете начинать темы
Вы не можете отвечать на сообщения
Вы не можете редактировать свои сообщения
Вы не можете удалять свои сообщения
Вы не можете добавлять вложения

Перейти:  
 Вход
ppkBB3cker v.2 © 2008-2014 @ PPK
[ Time : 0.037s | 17 Queries | GZIP : Off ]

cron