img image001 image001 image001 image001 image001 image001 image001 image001 image001 image001 image001 image001 image001 image001 image001 image001

Planets Sun Sun Sun
Статистика раздачи
Автор: Снежана | Размер: 1.77 ГБ | Добавлен: 12 июн 2018
Раздают: 33    Качают: 3
Скачать торрент
Скачать торрент
Описание торрента

СообщениеДобавлено: 12 июн 2018 

С любовью, Саймон / Love, Simon


Перевод: Профессиональный (многоголосый закадровый) HDRezka Studio
Cубтитры: Русские, aнглийские
Формат: BDRip-AVC, MKV, H.264, AC3
Страна: США
Режиссер: Грег Берланти
Жанр: Драма, мелодрама, комедия
Продолжительность: 01:49:43
Год выпуска: 2018

В ролях: Ник Дж. Робинсон, Джош Дюамель, Дженнифер Гарнер, Кэтрин Лэнгфорд, Александра Шипп, Майлс Хейзер, Талита Бейтман, Кейнан Лонсдейл, Логан Миллер, Тони Хейл
Описание: Старшеклассник Саймон скрывает от друзей свою гомосексуальность, но его переписка с анонимным возлюбленным попадает в чужие руки. Школьный «клоун» Мартин угрожает разоблачить Саймона, если тот не поможет ему завязать роман с местной красавицей.



Видео: 1024x428 (2.40:1), 23,976 fps, AVC MPEG-4 (x264), High@L4,1 ~ 1 662 Кбит/сек, 0.158 bit/pixel

Аудио #1: Русский:48 kHz, AC3 Dolby Digital, 2/0 (L,R) ch, ~192 kbps [Профессиональный (многоголосый закадровый), HDrezka Studio]
Аудио #2: Английский:48 kHz, AC3 Dolby Digital, 3/2 (L,C,R,l,r) + LFE ch, ~ 448 kbps avg [Оригинал]






Общее
Уникальный идентификатор : 214926219761651278351714978092546800975 (0xA1B148C46E35589CB65F7442934C3D4F)
Полное имя : E:\Закачка-2\Love.Simon.2018.BDRip(AVC).OlLanDGroup.mkv
Формат : Matroska
Версия формата : Version 4 / Version 2
Размер файла : 1,77 Гбайт
Продолжительность : 1 ч. 49 м.
Общий поток : 2304 Кбит/сек
Название фильма : Love.Simon.2018 #TorpedoUK#
Дата кодирования : UTC 2018-06-11 18:40:17
Программа кодирования : mkvmerge v8.3.0 ('Over the Horizon') 64bit
Библиотека кодирования : libebml v1.3.1 + libmatroska v1.4.2
Обложка : Yes
Attachments : small_cover.jpg / small_cover_land.jpg / cover.jpg / cover_land.jpg

Видео
Идентификатор : 1
Формат : AVC
Формат/Информация : Advanced Video Codec
Профиль формата :
Параметр CABAC формата : Да
Параметр ReFrames формата : 10 кадров
Идентификатор кодека : V_MPEG4/ISO/AVC
Продолжительность : 1 ч. 49 м.
Битрейт : 1662 Кбит/сек
Ширина : 1024 пикселя
Высота : 428 пикселей
Соотношение сторон : 2,40:1
Режим частоты кадров : Постоянный
Частота кадров : 23,976 (24000/1001) кадра/сек
Цветовое пространство : YUV
Субдискретизация насыщенности : 4:2:0
Битовая глубина : 8 бит
Тип развёртки : Прогрессивная
Бит/(Пиксели*Кадры) : 0.158
Размер потока : 1,24 Гбайт (70%)
Библиотека кодирования : x264 core 146 r2538 121396c
Настройки программы : cabac=1 / ref=10 / deblock=1:-3:-3 / analyse=0x3:0x133 / me=umh / subme=11 / psy=1 / psy_rd=1.00:0.03 / mixed_ref=1 / me_range=48 / chroma_me=1 / trellis=2 / 8x8dct=1 / cqm=0 / deadzone=21,11 / fast_pskip=1 / chroma_qp_offset=-3 / threads=6 / lookahead_threads=1 / sliced_threads=0 / nr=0 / decimate=1 / interlaced=0 / bluray_compat=0 / constrained_intra=0 / bframes=10 / b_pyramid=2 / b_adapt=2 / b_bias=0 / direct=3 / weightb=1 / open_gop=0 / weightp=2 / keyint=240 / keyint_min=23 / scenecut=40 / intra_refresh=0 / rc_lookahead=40 / rc=2pass / mbtree=0 / bitrate=1662 / ratetol=1.0 / qcomp=0.60 / qpmin=0 / qpmax=69 / qpstep=4 / cplxblur=20.0 / qblur=0.5 / vbv_maxrate=50000 / vbv_bufsize=62500 / nal_hrd=none / filler=0 / ip_ratio=1.40 / pb_ratio=1.30 / aq=1:1.00
Язык : English
Default : Да
Forced : Нет

Аудио #1
Идентификатор : 2
Формат : AC-3
Формат/Информация : Audio Coding 3
Расширение режима : CM (complete main)
Параметр Endianness формата : Big
Идентификатор кодека : A_AC3
Продолжительность : 1 ч. 49 м.
Вид битрейта : Постоянный
Битрейт : 192 Кбит/сек
Каналы : 2 канала
Расположение каналов : Front: L R
Частота : 48,0 КГц
Частота кадров : 31,250 кадров/сек (1536 spf)
Метод сжатия : С потерями
Размер потока : 151 Мбайт (8%)
Заголовок : [HDRezka Studio]
Язык : Russian
Default : Да
Forced : Нет

Аудио #2
Идентификатор : 3
Формат : AC-3
Формат/Информация : Audio Coding 3
Расширение режима : CM (complete main)
Параметр Endianness формата : Big
Идентификатор кодека : A_AC3
Продолжительность : 1 ч. 49 м.
Вид битрейта : Постоянный
Битрейт : 448 Кбит/сек
Каналы : 6 каналов
Расположение каналов : Front: L C R, Side: L R, LFE
Частота : 48,0 КГц
Частота кадров : 31,250 кадров/сек (1536 spf)
Метод сжатия : С потерями
Размер потока : 352 Мбайт (19%)
Заголовок : Original
Язык : English
Default : Нет
Forced : Нет

Текст #1
Идентификатор : 4
Формат : UTF-8
Идентификатор кодека : S_TEXT/UTF8
Идентификатор кодека/Информация : UTF-8 Plain Text
Заголовок : Full
Язык : Russian
Default : Нет
Forced : Нет

Текст #2
Идентификатор : 5
Формат : UTF-8
Идентификатор кодека : S_TEXT/UTF8
Идентификатор кодека/Информация : UTF-8 Plain Text
Заголовок : Full
Язык : English
Default : Нет
Forced : Нет

Текст #3
Идентификатор : 6
Формат : UTF-8
Идентификатор кодека : S_TEXT/UTF8
Идентификатор кодека/Информация : UTF-8 Plain Text
Заголовок : SDH
Язык : English
Default : Нет
Forced : Нет

Меню
00:00:00.000 : en:Chapter 01
00:04:13.795 : en:Chapter 02
00:08:38.893 : en:Chapter 03
00:13:51.121 : en:Chapter 04
00:18:04.041 : en:Chapter 05
00:25:37.994 : en:Chapter 06
00:29:25.138 : en:Chapter 07
00:33:52.321 : en:Chapter 08
00:42:03.229 : en:Chapter 09
00:47:46.613 : en:Chapter 10
00:54:15.043 : en:Chapter 11
00:59:24.435 : en:Chapter 12
01:02:49.390 : en:Chapter 13
01:05:40.770 : en:Chapter 14
01:09:55.399 : en:Chapter 15
01:17:11.501 : en:Chapter 16
01:20:03.298 : en:Chapter 17
01:22:22.687 : en:Chapter 18
01:24:27.562 : en:Chapter 19
01:27:52.850 : en:Chapter 20
01:32:35.633 : en:Chapter 21
01:38:17.433 : en:Chapter 22
01:41:13.192 : en:Chapter 23
01:45:44.963 : en:Chapter 24






   Похожие торренты   Торрент   Размер 
В этой теме нет новых непрочитанных сообщений. С любовью, Саймон / Love, Simon (Грег Берланти) [2018, Драма, мелодрама, комедия, BDRip] MVO

58 | 5

1.41 ГБ

В этой теме нет новых непрочитанных сообщений. Займемся любовью / Давай займемся любовью / Let's Make Love (Джордж Кьюкор) [1960, мюзикл, мелодрама, комедия, BDRip] DVO

6 | 0

1.46 ГБ

В этой теме нет новых непрочитанных сообщений. Стрела, 4 сезон 1-10 серии из 23 / Arrow [BaibaKo] (Грег Берланти) [2015, фантастика, фэнтези, боевик, драма, приключения, WEB-DLRip, P]

249 | 46

5.64 ГБ

В этой теме нет новых непрочитанных сообщений. Стрела, 4 сезон 1-12 серии из 23 / Arrow [BaibaKo] (Грег Берланти) [2015, фантастика, фэнтези, боевик, драма, приключения, WEB-DLRip, P]

203 | 211

6.76 ГБ

В этой теме нет новых непрочитанных сообщений. Реальная любовь / Love Actually (Ричард Кёртис) [2003, драма, мелодрама, комедия, BDRip] 2xAVO

0 | 0

2.01 ГБ

В этой теме нет новых непрочитанных сообщений. Любовь и дружба / Love & Friendship (Уит Стиллман) [2016, драма, мелодрама, комедия, BDRip] DUB / Драмы

7 | 0

744.16 МБ

В этой теме нет новых непрочитанных сообщений. Я люблю тебя, Филлип Моррис / I Love You, Phillip Morris (Гленн Фикарра, Джон Рекуа) [2009, драма, мелодрама, комедия, криминал, BDRip] DUB

0 | 0

1.76 ГБ




Вы не можете начинать темы
Вы не можете отвечать на сообщения
Вы не можете редактировать свои сообщения
Вы не можете удалять свои сообщения
Вы не можете добавлять вложения

Перейти:  
 Вход
ppkBB3cker v.2 © 2008-2014 @ PPK
[ Time : 0.045s | 15 Queries | GZIP : Off ]

cron