img image001 image001 image001 image001 image001 image001 image001 image001 image001 image001 image001 image001 image001 image001 image001 image001

Planets Sun Sun Sun
Статистика раздачи
Автор: Снежана | Размер: 1.46 ГБ | Добавлен: 09 июн 2018
Раздают: 13    Качают: 0
Скачать торрент
Скачать торрент
Описание торрента

СообщениеДобавлено: 09 июн 2018 

Дорожное приключение [Расширенная версия] / Road Trip [Unrated]

Перевод: Профессиональный (двухголосый)
Субтитры: Русские, английские
Формат: HDRip-AVC, MKV, H.264, AC3
Страна: США
Режиссер: Тодд Филлипс
Жанр: комедия, приключения
Продолжительность: 01:34:13
Год выпуска: 2000
В ролях: Брекин Мейер, Шон Уильям Скотт, Эми Смарт, Ди Джей Куоллс, Пауло Костанцо, Рэйчел Бланшар, Энтони Рэпп, Энди Дик

Описание: Студент Джош изменил своей девушке Тиффани, которая учится в другом университете, записал весь процесс на камеру и случайно отправил видеокассету ей в подарок. Чтобы спасти отношения, нужно перехватить плёнку раньше, чем та попадёт в руки адресата. Прихватив троих друзей, Джош отправляется в марш-бросок на машине через всю Америку.



Видео: 992x558 (16:9), 23.976 fps, AVC MPEG-4 (H.264), ~2012 kbps, 0.152 bit/pixel
Аудио: 48 kHz, AC3 Dolby Digital, 2 ch, ~192 kbps

Доп. информация: Присутствует вставка закадрового перевода.
Format : Matroska
Format version : Version 4 / Version 2
File size : 1.46 GiB
Duration : 1 h 34 min
Overall bit rate : 2 221 kb/s

Video
ID : 1
Format : AVC
Format/Info : Advanced Video Codec
Format profile :
Format settings, CABAC : Yes
Format settings, RefFrames : 11 frames
Codec ID : V_MPEG4/ISO/AVC
Duration : 1 h 34 min
Bit rate : 2 012 kb/s
Width : 992 pixels
Height : 558 pixels
Display aspect ratio : 16:9
Frame rate mode : Constant
Frame rate : 23.976 (24000/1001) FPS
Color space : YUV
Chroma subsampling : 4:2:0
Bit depth : 8 bits
Scan type : Progressive
Bits/(Pixel*Frame) : 0.152
Stream size : 1.31 GiB (89%)
Title : RIP_BY_-=DoMiNo=-
Writing library : x264 core 152 r2851M ba24899
Encoding settings : cabac=1 / ref=11 / deblock=1:-3:-3 / analyse=0x3:0x133 / me=umh / subme=11 / psy=1 / psy_rd=1.00:0.05 / mixed_ref=1 / me_range=56 / chroma_me=1 / trellis=2 / 8x8dct=1 / cqm=0 / deadzone=21,11 / fast_pskip=0 / chroma_qp_offset=-3 / threads=5 / lookahead_threads=1 / sliced_threads=0 / nr=0 / decimate=1 / interlaced=0 / bluray_compat=0 / constrained_intra=0 / bframes=12 / b_pyramid=2 / b_adapt=2 / b_bias=0 / direct=3 / weightb=1 / open_gop=0 / weightp=2 / keyint=230 / keyint_min=23 / scenecut=40 / intra_refresh=0 / rc=2pass / mbtree=0 / bitrate=2012 / ratetol=1.0 / qcomp=0.65 / qpmin=0 / qpmax=69 / qpstep=4 / cplxblur=20.0 / qblur=0.5 / ip_ratio=1.40 / pb_ratio=1.30 / aq=1:1.00
Language : English
Default : Yes
Forced : No
DURATION : 01:34:13.522000000

Audio
ID : 2
Format : AC-3
Format/Info : Audio Coding 3
Format settings, Endianness : Big
Codec ID : A_AC3
Duration : 1 h 34 min
Bit rate mode : Constant
Bit rate : 192 kb/s
Channel(s) : 2 channels
Channel positions : Front: L R
Sampling rate : 48.0 kHz
Frame rate : 31.250 FPS (1536 SPF)
Bit depth : 16 bits
Compression mode : Lossy
Stream size : 129 MiB (9%)
Title : Дубляж
Language : Russian
Service kind : Complete Main
Default : Yes
Forced : No
DURATION : 01:34:13.536000000

Text #1
ID : 3
Format : UTF-8
Codec ID : S_TEXT/UTF8
Codec ID/Info : UTF-8 Plain Text
Title : R5
Language : Russian
Default : Yes
Forced : No
DURATION : 01:30:24.059000000

Text #2
ID : 4
Format : UTF-8
Codec ID : S_TEXT/UTF8
Codec ID/Info : UTF-8 Plain Text
Title : v2
Language : Russian
Default : No
Forced : No
DURATION : 01:34:06.896000000

Text #3
ID : 5
Format : UTF-8
Codec ID : S_TEXT/UTF8
Codec ID/Info : UTF-8 Plain Text
Language : English
Default : No
Forced : No
DURATION : 01:30:15.242000000

Text #4
ID : 6
Format : UTF-8
Codec ID : S_TEXT/UTF8
Codec ID/Info : UTF-8 Plain Text
Language : English
Default : No
Forced : No
DURATION : 01:30:51.069000000

Text #5
ID : 7
Format : UTF-8
Codec ID : S_TEXT/UTF8
Codec ID/Info : UTF-8 Plain Text
Language : Spanish
Default : No
Forced : No
DURATION : 01:30:06.692000000

Text #6
ID : 8
Format : UTF-8
Codec ID : S_TEXT/UTF8
Codec ID/Info : UTF-8 Plain Text
Language : English
Default : No
Forced : No
DURATION : 01:30:15.242000000

Text #7
ID : 9
Format : UTF-8
Codec ID : S_TEXT/UTF8
Codec ID/Info : UTF-8 Plain Text
Language : Portuguese
Default : No
Forced : No
DURATION : 01:30:15.993000000

Menu
00:00:00.000 : :Глава 1
00:07:05.800 : :Глава 2
00:09:28.943 : :Глава 3
00:11:27.604 : :Глава 4
00:15:58.040 : :Глава 5
00:18:58.137 : :Глава 6
00:23:36.540 : :Глава 7
00:26:40.474 : :Глава 8
00:30:26.700 : :Глава 9
00:33:11.448 : :Глава 10
00:38:01.070 : :Глава 11
00:40:54.952 : :Глава 12
00:46:17.942 : :Глава 13
00:49:42.771 : :Глава 14
00:53:18.237 : :Глава 15
00:58:22.499 : :Глава 16
01:02:17.692 : :Глава 17
01:06:10.675 : :Глава 18
01:08:17.760 : :Глава 19
01:11:37.710 : :Глава 20
01:15:34.947 : :Глава 21
01:20:32.453 : :Глава 22
01:26:15.462 : :Глава 23
01:30:08.194 : :Глава 24
01:03:40.256 : :Глава 25
01:06:10.656 : :Глава 26
01:08:17.741 : :Глава 27
01:11:37.690 : :Глава 28
01:15:34.928 : :Глава 29
01:20:32.434 : :Глава 30
01:26:15.443 : :Глава 31
01:30:08.175 : :Глава 32












   Похожие торренты   Торрент   Размер 
В этой теме нет новых непрочитанных сообщений. Дорожное приключение / Road Trip | Extended Unrated Cut | (2000) HDRip

295 | 20

1.95 ГБ

В этой теме нет новых непрочитанных сообщений. Дорожное приключение / Road Trip (2000) BDRip 720p от HDCLUB | Unrated

92 | 16

8.71 ГБ

В этой теме нет новых непрочитанных сообщений. Дорожное приключение / Road Trip (2000) BDRip-AVC от MediaClub | D, P, A

58 | 10

3.65 ГБ

В этой теме нет новых непрочитанных сообщений. Дорожное приключение / Road Trip (2000) BDRip-AVC от Leo.pard | P2

28 | 5

744.56 МБ

В этой теме нет новых непрочитанных сообщений. Морское приключение / Boat Trip (2002) WEB-DL 1080p | D, P, A | Расширенная версия

6 | 2

10.96 ГБ

В этой теме нет новых непрочитанных сообщений. Морское приключение / Boat Trip (2002) WEB-DL 720p | D, P, A | Расширенная версия

3 | 3

4.12 ГБ

В этой теме нет новых непрочитанных сообщений. Морское приключение / Boat Trip (2002) WEB-DLRip-AVC от 0ptimus | D, P, A | Расширенная версия

146 | 7

3.03 ГБ




Вы не можете начинать темы
Вы не можете отвечать на сообщения
Вы не можете редактировать свои сообщения
Вы не можете удалять свои сообщения
Вы не можете добавлять вложения

Перейти:  
 Вход
ppkBB3cker v.2 © 2008-2014 @ PPK
[ Time : 0.035s | 16 Queries | GZIP : Off ]

cron