img image001 image001 image001 image001 image001 image001 image001 image001 image001 image001 image001 image001 image001 image001 image001 image001

Planets Sun Sun Sun
Статистика раздачи
Автор: Снежана | Размер: 746.44 МБ | Добавлен: 25 май 2018
Раздают: 3    Качают: 0
Скачать торрент
Скачать торрент
Описание торрента

СообщениеДобавлено: 25 май 2018 

Ограбление по-итальянски / The Italian Job

Перевод: Профессиональный (полное дублирование)
Субтитры: Русские (форсированные)
Формат: LowHDRip-AVC, MKV, H.264, AAC
Страна: США, Франция, Великобритания, Италия
Режиссер: Ф. Гэри Грей
Жанр: боевик, триллер, криминал
Продолжительность: 01:50:41
Год выпуска: 2003

В ролях: Марк Уолберг, Шарлиз Терон, Дональд Сазерленд, Джейсон Стэтхэм, Сет Грин, Мос Деф, Эдвард Нортон, Фаусто Каллегарини, Стефано Петронелли, Фабио Скарпа

Описание: Джон Бриджер всегда умел спланировать идеальное ограбление. Вместе со своей командой опытных бандитов он провернул не одно дело, но теперь решил уйти на покой. Впереди у Бриджера последнее задание: кража золотых слитков, в которой принимают участие инсайдер Стив, водитель Роб, взрыватель Левое ухо, технарь Лайл и Чарли — верный друг Бриджера и второй «планировщик» в их команде. Ограбление, изящное и быстрое, было разыграно как по нотам, но после его завершения веселье преступников было омрачено предательством…



Видео: 784x324 (2.40:1), 23.976 fps, AVC MPEG-4 (H.264), ~870 kbps, 0.143 bit/pixel
Аудио: 48 kHz, AАС-LC, 2 ch, ~72 kbps

Format : Matroska
Format version : Version 4 / Version 2
File size : 746 MiB
Duration : 1 h 50 min
Overall bit rate : 944 kb/s
Encoded date : UTC 2017-09-21 06:43:48
Writing application : mkvmerge v9.6.0 ('Slave To Your Mind') 64bit
Writing library : libebml v1.3.4 + libmatroska v1.4.5

Video
ID : 1
Format : AVC
Format/Info : Advanced Video Codec
Format profile :
Format settings : CABAC / 6 Ref Frames
Format settings, CABAC : Yes
Format settings, RefFrames : 6 frames
Codec ID : V_MPEG4/ISO/AVC
Duration : 1 h 50 min
Bit rate : 870 kb/s
Width : 784 pixels
Height : 324 pixels
Display aspect ratio : 2.40:1
Frame rate mode : Constant
Frame rate : 23.976 (24000/1001) FPS
Color space : YUV
Chroma subsampling : 4:2:0
Bit depth : 8 bits
Scan type : Progressive
Bits/(Pixel*Frame) : 0.143
Stream size : 688 MiB (92%)
Writing library : x264 core 146 r2538 121396c
Encoding settings : cabac=1 / ref=6 / deblock=1:-3:-3 / analyse=0x3:0x113 / me=umh / subme=10 / psy=1 / psy_rd=1.00:0.00 / mixed_ref=1 / me_range=32 / chroma_me=1 / trellis=2 / 8x8dct=1 / cqm=0 / deadzone=21,11 / fast_pskip=0 / chroma_qp_offset=-2 / threads=4 / lookahead_threads=1 / sliced_threads=0 / nr=0 / decimate=0 / interlaced=0 / bluray_compat=0 / constrained_intra=0 / bframes=6 / b_pyramid=2 / b_adapt=1 / b_bias=0 / direct=3 / weightb=1 / open_gop=0 / weightp=2 / keyint=240 / keyint_min=23 / scenecut=40 / intra_refresh=0 / rc_lookahead=40 / rc=2pass / mbtree=1 / bitrate=870 / ratetol=1.0 / qcomp=0.60 / qpmin=0 / qpmax=69 / qpstep=4 / cplxblur=20.0 / qblur=0.5 / vbv_maxrate=50000 / vbv_bufsize=62500 / nal_hrd=none / filler=0 / ip_ratio=1.40 / aq=1:1.00
Default : Yes
Forced : No

Audio
ID : 2
Format : AAC
Format/Info : Advanced Audio Codec
Format profile : LC
Codec ID : A_AAC-2
Duration : 1 h 50 min
Bit rate : 72.0 kb/s
Channel(s) : 2 channels
Channel positions : Front: L R
Sampling rate : 48.0 kHz
Frame rate : 46.875 FPS (1024 SPF)
Compression mode : Lossy
Delay relative to video : 9 ms
Stream size : 56.9 MiB (8%)
Default : Yes
Forced : No

Text
ID : 3
Format : UTF-8
Codec ID : S_TEXT/UTF8
Codec ID/Info : UTF-8 Plain Text
Duration : 1 h 23 min
Bit rate : 0 b/s
Count of elements : 11
Stream size : 595 Bytes (0%)
Title : Forced
Language : Russian
Default : Yes
Forced : No : No












   Похожие торренты   Торрент   Размер 
В этой теме нет новых непрочитанных сообщений. Ограбление по-итальянски / The Italian Job (Ф. Гэри Грей) [2003, боевик, триллер, криминал, BDRip] DUB / Боевики /Action

4 | 0

1.45 ГБ

В этой теме нет новых непрочитанных сообщений. Ограбление по-итальянски / The Italian Job (Ф. Гэри Грей) [Open Matte] [2003, боевик, триллер, криминал, WEB-DLRip-AVC] DUB / Боевики /Action

9 | 0

2.18 ГБ

В этой теме нет новых непрочитанных сообщений. Ограбление по-итальянски / The Italian Job (Ф. Гэри Грей) [Open Matte] [2003, боевик, триллер, криминал, WEB-DLRip] DUB / Боевики /Action

13 | 2

1.45 ГБ

В этой теме нет новых непрочитанных сообщений. Одиночка / A Man Apart (Ф. Гэри Грей) [Open Matte] [2003, боевик, триллер, драма, криминал, HDRip] MVO / Боевики /Action

2 | 0

1.46 ГБ

В этой теме нет новых непрочитанных сообщений. Форсаж 8 / The Fate of the Furious (Ф. Гэри Грей) [2017, боевик, триллер, криминал, HDRip] DUB / Боевики /Action

402 | 10

1.45 ГБ

В этой теме нет новых непрочитанных сообщений. Форсаж 8 / The Fate of the Furious (Ф. Гэри Грей) [2017, боевик, триллер, криминал, BDRip] DUB / Боевики /Action

52 | 10

1.46 ГБ

В этой теме нет новых непрочитанных сообщений. Форсаж 8 / The Fate of the Furious (Ф. Гэри Грей) [2017, боевик, триллер, криминал, BDRip-AVC] DUB / Боевики /Action

74 | 4

2.91 ГБ




Вы не можете начинать темы
Вы не можете отвечать на сообщения
Вы не можете редактировать свои сообщения
Вы не можете удалять свои сообщения
Вы не можете добавлять вложения

Перейти:  
 Вход
ppkBB3cker v.2 © 2008-2014 @ PPK
[ Time : 0.024s | 15 Queries | GZIP : Off ]

cron