img image001 image001 image001 image001 image001 image001 image001 image001 image001 image001 image001 image001 image001 image001 image001 image001

Planets Sun Sun Sun
Статистика раздачи
Автор: Снежана | Размер: 2.16 ГБ | Добавлен: 28 апр 2018
Раздают: 95    Качают: 6
Скачать торрент
Скачать торрент
Описание торрента

СообщениеДобавлено: 28 апр 2018 

Тихоокеанский рубеж 2 / Pacific Rim Uprising


Перевод: Любительский (многоголосый, закадровый) HDrezka Studio
Cубтитры: Китайские (вшитые)
Формат: WEBRip-AVC, MKV, H.264, AC3
Страна: США, Китай, Великобритания
Режиссер: Стивен С. ДеНайт
Жанр: фантастика, боевик, приключения
Продолжительность: 01:50:43
Год выпуска: 2018

В ролях: Джон Бойега, Каран Брэр, Кэйли Спэни, Скотт Иствуд, Чарли Дэй, Адриа Архона, Макс Чжан, Ринко Кикути, Берн Горман, Цзин Тянь

Описание: Команда пилотируемых роботов-защитников остановила вторжение гигантских инопланетных монстров. Великая битва за Тихоокеанский рубеж ознаменовала новую главу в истории человечества. Однако война только начинается...
Пришло время нового поколения отстаивать своё право на Землю.




Видео: 1024x426 (1.85:1), 23.976 fps, AVC MPEG-4 (x264), High@L4,1, ~ 2 405 kbps avg, 0.230 bit/pixel

Аудио#1: Русский; 48 kHz, AC3 Dolby Digital, 2 ch, ~192 kb/s [Любительский (многоголосый, закадровый), HDrezka Studio]
Аудио#2: Английский 48 kHz, AC3 Dolby Digital, 2 ch, ~192 kb/s [оригинал]

Без рекламы!






Общее
Уникальный идентификатор : 238595669217854165830663846597802879815 (0xB37FDAB99DBC2DABA7A65A96D8BC6B47)
Полное имя : E:\Закачка-2\Pacific.Rim.2.Uprising.2018.MVO.AVC.Enigma.mkv
Формат : Matroska
Версия формата : Version 2
Размер файла : 2,16 Гбайт
Продолжительность : 1 ч. 50 м.
Общий поток : 2791 Кбит/сек
Название фильма : Pacific Rim 2 Uprising 2018 from ExKinoRay
Дата кодирования : UTC 2018-04-27 02:16:37
Программа кодирования : mkvmerge v5.6.0 ('Kenya Kane') built on May 27 2012 16:44:04
Библиотека кодирования : libebml v1.2.3 + libmatroska v1.3.0

Видео
Идентификатор : 1
Формат : AVC
Формат/Информация : Advanced Video Codec
Профиль формата :
Параметр CABAC формата : Да
Параметр ReFrames формата : 11 кадров
Идентификатор кодека : V_MPEG4/ISO/AVC
Продолжительность : 1 ч. 50 м.
Битрейт : 2405 Кбит/сек
Ширина : 1024 пикселя
Высота : 426 пикселей
Соотношение сторон : 2,40:1
Режим частоты кадров : Постоянный
Частота кадров : 23,976 (24000/1001) кадра/сек
Частота кадров в оригинале : 23,976 (23976/1000) кадра/сек
Цветовое пространство : YUV
Субдискретизация насыщенности : 4:2:0
Битовая глубина : 8 бит
Тип развёртки : Прогрессивная
Бит/(Пиксели*Кадры) : 0.230
Размер потока : 1,82 Гбайт (84%)
Заголовок : Enigma
Библиотека кодирования : x264 core 152 r2851 ba24899
Настройки программы : cabac=1 / ref=11 / deblock=1:-2:-2 / analyse=0x3:0x113 / me=umh / subme=10 / psy=1 / psy_rd=1.05:0.10 / mixed_ref=1 / me_range=32 / chroma_me=1 / trellis=2 / 8x8dct=1 / cqm=0 / deadzone=21,11 / fast_pskip=0 / chroma_qp_offset=-3 / threads=12 / lookahead_threads=3 / sliced_threads=0 / nr=0 / decimate=0 / interlaced=0 / bluray_compat=0 / constrained_intra=0 / bframes=12 / b_pyramid=2 / b_adapt=2 / b_bias=0 / direct=3 / weightb=1 / open_gop=0 / weightp=2 / keyint=240 / keyint_min=23 / scenecut=40 / intra_refresh=0 / rc_lookahead=40 / rc=2pass / mbtree=0 / bitrate=2405 / ratetol=1.0 / qcomp=0.60 / qpmin=0 / qpmax=51 / qpstep=4 / cplxblur=20.0 / qblur=0.5 / vbv_maxrate=50000 / vbv_bufsize=62500 / nal_hrd=none / filler=0 / ip_ratio=1.40 / pb_ratio=1.30 / aq=3:0.80
Default : Да
Forced : Нет
Цветовой диапазон : Limited
Основные цвета : BT.709
Характеристики трансфера : BT.709
Коэффициенты матрицы : BT.709

Аудио #1
Идентификатор : 2
Формат : AC-3
Формат/Информация : Audio Coding 3
Расширение режима : CM (complete main)
Параметр Endianness формата : Big
Идентификатор кодека : A_AC3
Продолжительность : 1 ч. 50 м.
Вид битрейта : Постоянный
Битрейт : 192 Кбит/сек
Каналы : 2 канала
Расположение каналов : Front: L R
Частота : 48,0 КГц
Частота кадров : 31,250 кадров/сек (1536 spf)
Метод сжатия : С потерями
Размер потока : 152 Мбайт (7%)
Заголовок : MVO
Язык : Russian
Default : Да
Forced : Нет

Аудио #2
Идентификатор : 3
Формат : AC-3
Формат/Информация : Audio Coding 3
Расширение режима : CM (complete main)
Параметр Endianness формата : Big
Идентификатор кодека : A_AC3
Продолжительность : 1 ч. 50 м.
Вид битрейта : Постоянный
Битрейт : 192 Кбит/сек
Каналы : 2 канала
Расположение каналов : Front: L R
Частота : 48,0 КГц
Частота кадров : 31,250 кадров/сек (1536 spf)
Метод сжатия : С потерями
Размер потока : 152 Мбайт (7%)
Язык : English
Default : Нет
Forced : Нет






   Похожие торренты   Торрент   Размер 
В этой теме нет новых непрочитанных сообщений. Тихоокеанский рубеж 2 / Pacific Rim: Uprising (Стивен С. ДеНайт) [2018, фантастика, боевик, приключения, HDRip-AVC] DUB / Фильмы HDRip

25 | 5

2.18 ГБ

В этой теме нет новых непрочитанных сообщений. Тихоокеанский рубеж 2 / Pacific Rim Uprising (Стивен С. ДеНайт) [2018, фантастика, боевик, приключения, HDTVRip] MVO

538 | 7

1.46 ГБ

В этой теме нет новых непрочитанных сообщений. Тихоокеанский рубеж 2 / Pacific Rim Uprising (Стивен С. ДеНайт) [2018, фантастика, боевик, приключения, WEB-DLRip-AVC] DUB

101 | 6

3.41 ГБ

В этой теме нет новых непрочитанных сообщений. Тихоокеанский рубеж 2 / Pacific Rim: Uprising (Стивен С. ДеНайт) [2018, фантастика, боевик, приключения, BDRip-AVC] DUB

62 | 8

1.46 ГБ

В этой теме нет новых непрочитанных сообщений. Тихоокеанский рубеж 2 / Pacific Rim Uprising (Стивен С. ДеНайт) [2018, фантастика, боевик, приключения, WEB-DLRip-AVC] DUB

52 | 0

1.56 ГБ

В этой теме нет новых непрочитанных сообщений. Тихоокеанский рубеж 2 / Pacific Rim Uprising (Стивен С. ДеНайт) [2018, Фантастика, боевик, приключения, TeleSynch] DUB

240 | 2

1.37 ГБ

В этой теме нет новых непрочитанных сообщений. Тихоокеанский рубеж 2 / Pacific Rim Uprising (Стивен С. ДеНайт) [2018, боевик, фантастика, приключения, HDTVRip] DUB

166 | 7

1.46 ГБ




Вы не можете начинать темы
Вы не можете отвечать на сообщения
Вы не можете редактировать свои сообщения
Вы не можете удалять свои сообщения
Вы не можете добавлять вложения

Перейти:  
 Вход
ppkBB3cker v.2 © 2008-2014 @ PPK
[ Time : 0.029s | 15 Queries | GZIP : Off ]

cron