img image001 image001 image001 image001 image001 image001 image001 image001 image001 image001 image001 image001 image001 image001 image001 image001

Planets Sun Sun Sun
Статистика раздачи
Автор: Снежана | Размер: 2.83 ГБ | Добавлен: 09 апр 2018
Раздают: 90    Качают: 0
Скачать торрент
Скачать торрент
Описание торрента

СообщениеДобавлено: 09 апр 2018 

Страна призраков / Ghostland
Перевод: Профессиональный (полное дублирование) [iTunes]

Субтитры: отсутствуют

Формат: WEB-DLRip-AVC, MKV, H.264, AC3

Страна: Франция, Канада

Режиссер: Паскаль Ложье

Жанр: ужасы, триллер

Продолжительность: 01:30:58

Год выпуска: 2018

В ролях: Кристал Рид, Анастасия Филлипс, Эмилия Джонс, Тэйлор Хиксон, Милен Фармер, Роб Арчер, Анджела Эшер, Эрик Атхавале, Тони Брэга, Паоло Брайант и др.

Описание: Бэт возвращается в родные места, где много лет назад с её семьёй произошла страшная трагедия. В старом особняке её ждут мать и сестра, помешанная на призраках, чья одержимость злыми духами — не что иное, как отголосок ужасного инцидента, превратившего жизнь в параноидальный кошмар. В доме начинают происходить странные события, объяснить которые Бэт не в силах…

_____

Видео: 1280x536 (2.35:1), 24.000 fps, AVC MPEG-4 (H.264), ~3973 kbps, 0.241 bit/pixel
Аудио: 48 kHz, AC3 Dolby Digital, 3/2 (L,C,R,l,r) + LFE ch, ~384 kbps

Доп. информация: Реклама отсутствует.

General
Unique ID : 193248025701357699045045214167726295913 (0x91623747CA884C0BBCDF81B01E980B69)
Complete name : E:\Ghostland.2018_Klayd X.mkv
Format : Matroska
File size : 2.83 GiB
Duration : 1h 30mn
Overall bit rate : 4 446 Kbps
Encoded date : UTC 2018-04-08 20:31:37
Writing application : mkvmerge v8.3.0 ('Over the Horizon') 64bit
Writing library : libebml v1.3.1 + libmatroska v1.4.2

Video
ID : 1
Format : AVC
Format/Info : Advanced Video Codec
Format profile :
Format settings, CABAC : No
Format settings, ReFrames : 2 frames
Codec ID : V_MPEG4/ISO/AVC
Duration : 1h 30mn
Bit rate : 3 973 Kbps
Width : 1 280 pixels
Height : 536 pixels
Display aspect ratio : 2.35:1
Frame rate : 24.000 fps
Color space : YUV
Chroma subsampling : 4:2:0
Bit depth : 8 bits
Scan type : Progressive
Bits/(Pixel*Frame) : 0.241
Stream size : 2.53 GiB (89%)
Language : English
Color primaries : BT.709-5, BT.1361, IEC 61966-2-4, SMPTE RP177
Transfer characteristics : BT.709-5, BT.1361
Matrix coefficients : BT.709-5, BT.1361, IEC 61966-2-4 709, SMPTE RP177

Audio
ID : 2
Format : AC-3
Format/Info : Audio Coding 3
Mode extension : CM (complete main)
Codec ID : A_AC3
Duration : 1h 30mn
Bit rate mode : Constant
Bit rate : 384 Kbps
Channel(s) : 6 channels
Channel positions : Front: L C R, Side: L R, LFE
Sampling rate : 48.0 KHz
Bit depth : 16 bits
Compression mode : Lossy
Stream size : 250 MiB (9%)
Language : Russian

Menu
00:00:00.000 : en:Глава 1
00:06:21.375 : en:Глава 2
00:11:59.583 : en:Глава 3
00:18:30.541 : en:Глава 4
00:24:06.249 : en:Глава 5
00:29:33.790 : en:Глава 6
00:36:07.706 : en:Глава 7
00:43:21.789 : en:Глава 8
00:50:57.205 : en:Глава 9
00:56:45.163 : en:Глава 10
01:03:33.746 : en:Глава 11
01:10:18.537 : en:Глава 12
01:15:41.703 : en:Глава 13














   Похожие торренты   Торрент   Размер 
В этой теме нет новых непрочитанных сообщений. Страна призраков / Ghostland (Паскаль Ложье) [2018, ужасы, WEB-DLRip-AVC] DUB

13 | 0

747.23 МБ

В этой теме нет новых непрочитанных сообщений. Страна призраков / Ghostland (Паскаль Ложье) [2018, ужасы, WEB-DLRip-AVC] DUB

68 | 0

1.46 ГБ

В этой теме нет новых непрочитанных сообщений. Страна призраков / Ghostland (Паскаль Ложье) [2018, Ужасы, WEBDLRip] DUB

26 | 0

1.46 ГБ

В этой теме нет новых непрочитанных сообщений. Страна призраков / Ghostland (Паскаль Ложье) [2018, Ужасы, Low-HDRip] DUB

14 | 0

699.66 МБ

В этой теме нет новых непрочитанных сообщений. Страна призраков / Ghostland (Паскаль Ложье) [2018, Ужасы, HDRip] DUB

52 | 0

1.37 ГБ

В этой теме нет новых непрочитанных сообщений. Дом призраков / Ghost House (Рич Рэгсдэйл) [2017, ужасы, триллер, DVDRip] DUB / Мистика

7 | 0

1.46 ГБ

В этой теме нет новых непрочитанных сообщений. Фея / Pari (Прозит Рой) [2018, ужасы, триллер, мелодрама, WEB-DLRip] MVO

6 | 0

2.14 ГБ




Вы не можете начинать темы
Вы не можете отвечать на сообщения
Вы не можете редактировать свои сообщения
Вы не можете удалять свои сообщения
Вы не можете добавлять вложения

Перейти:  
 Вход
ppkBB3cker v.2 © 2008-2014 @ PPK
[ Time : 0.397s | 16 Queries | GZIP : Off ]

cron