img image001 image001 image001 image001 image001 image001 image001 image001 image001 image001 image001 image001 image001 image001 image001 image001

Planets Sun Sun Sun
Статистика раздачи
Автор: Снежана | Размер: 1.49 ГБ | Добавлен: 20 фев 2018
Раздают: 87    Качают: 8
Скачать торрент
Скачать торрент
Описание торрента

СообщениеДобавлено: 20 фев 2018 

Три билборда на границе Эббинга, Миссури / Three Billboards Outside Ebbing, Missouri

Перевод: Профессиональный (полное дублирование) лицензия
Субтитры: Русские
Формат: BDRip-AVC, MKV, H.264, AC3
Страна: Великобритания, США
Режиссер: Мартин МакДона
Жанр: драма, комедия, криминал
Продолжительность: 01:55:19
Год выпуска: 2017

В ролях: Фрэнсис МакДорманд, Вуди Харрельсон, Сэм Рокуэлл, Джон Хоукс, Питер Динклэйдж, Калеб Лэндри Джонс, Лукас Хеджес, Эбби Корниш, Керри Кондон, Даррел Бритт-Гибсон

Описание: Спустя несколько месяцев после убийства дочери Милдред Хейс преступники так и не найдены. Отчаявшаяся женщина решается на смелый шаг, арендуя на въезде в город три биллборда с посланием к авторитетному главе полиции Уильяму Уиллоуби. Когда в ситуацию оказывается втянут еще и заместитель шерифа, инфантильный маменькин сынок со склонностью к насилию, офицер Диксон, борьба между Милдред и властями города только усугубляется.



Видео: 1070x448 (2.40:1), 23.976 fps, AVC MPEG-4 (H.264), ~1398 kbps, 0.122 bit/pixel
Аудио: 48 kHz, AC3 Dolby Digital, 3/2 (L,C,R,l,r) + LFE ch, ~448 kbps

Format : Matroska
Format version : Version 4 / Version 2
File size : 1.49 GiB
Duration : 1 h 55 min
Overall bit rate : 1 848 kb/s
Movie name : Three Billboards Outside Ebbing, Missouri (2017) (Rip by stalkerok)
Encoded date : UTC 2018-02-19 12:45:17
Writing application : mkvmerge v8.6.1 ('Flying') 64bit
Writing library : libebml v1.3.3 + libmatroska v1.4.4

Video
ID : 3
Format : AVC
Format/Info : Advanced Video Codec
Format profile :
Format settings, CABAC : Yes
Format settings, ReFrames : 12 frames
Codec ID : V_MPEG4/ISO/AVC
Duration : 1 h 55 min
Bit rate : 1 398 kb/s
Width : 1 070 pixels
Height : 448 pixels
Display aspect ratio : 2.40:1
Frame rate mode : Constant
Frame rate : 23.976 (24000/1001) FPS
Color space : YUV
Chroma subsampling : 4:2:0
Bit depth : 8 bits
Scan type : Progressive
Bits/(Pixel*Frame) : 0.122
Stream size : 1.13 GiB (76%)
Title : Three Billboards Outside Ebbing, Missouri (2017) (Rip by stalkerok)
Writing library : x264 core 152 r2851kMod ba24899
Encoding settings : cabac=1 / ref=12 / deblock=1:-3:-2 / analyse=0x3:0x133 / me=umh / subme=11 / psy=1 / fade_compensate=0.00 / psy_rd=1.00:0.00 / mixed_ref=1 / me_range=32 / chroma_me=1 / trellis=2 / 8x8dct=1 / cqm=0 / deadzone=21,11 / fast_pskip=0 / chroma_qp_offset=-2 / threads=12 / lookahead_threads=3 / sliced_threads=0 / nr=0 / decimate=1 / interlaced=0 / bluray_compat=0 / constrained_intra=0 / bframes=15 / b_pyramid=2 / b_adapt=2 / b_bias=0 / direct=3 / weightb=1 / open_gop=0 / weightp=2 / keyint=240 / keyint_min=23 / scenecut=40 / intra_refresh=0 / rc_lookahead=60 / rc=crf / mbtree=0 / crf=18.1000 / qcomp=0.65 / qpmin=0 / qpmax=69 / qpstep=4 / vbv_maxrate=50000 / vbv_bufsize=62500 / crf_max=0.0 / nal_hrd=none / filler=0 / ip_ratio=1.40 / pb_ratio=1.30 / aq=3:0.85 / zones=159127,165933,q=32
Default : Yes
Forced : No

Audio
ID : 4
Format : AC-3
Format/Info : Audio Coding 3
Mode extension : CM (complete main)
Format settings, Endianness : Big
Codec ID : A_AC3
Duration : 1 h 55 min
Bit rate mode : Constant
Bit rate : 448 kb/s
Channel(s) : 6 channels
Channel positions : Front: L C R, Side: L R, LFE
Sampling rate : 48.0 kHz
Frame rate : 31.250 FPS (1536 spf)
Compression mode : Lossy
Stream size : 370 MiB (24%)
Language : Russian
Default : Yes
Forced : No

Text #1
ID : 1
Format : UTF-8
Codec ID : S_TEXT/UTF8
Codec ID/Info : UTF-8 Plain Text
Duration : 50 min
Bit rate : 1 b/s
Count of elements : 8
Stream size : 381 Bytes (0%)
Title : Forced
Language : Russian
Default : Yes
Forced : No

Text #2
ID : 2
Format : UTF-8
Codec ID : S_TEXT/UTF8
Codec ID/Info : UTF-8 Plain Text
Duration : 1 h 46 min
Bit rate : 99 b/s
Count of elements : 1370
Stream size : 77.8 KiB (0%)
Title : перевод студии FOCS
Language : Russian
Default : No
Forced : No

Menu
00:00:00.000 : en:Chapter 1
00:05:42.091 : en:Chapter 2
00:08:56.911 : en:Chapter 3
00:12:50.019 : en:Chapter 4
00:19:46.643 : en:Chapter 5
00:23:43.547 : en:Chapter 6
00:27:36.363 : en:Chapter 7
00:31:35.768 : en:Chapter 8
00:35:08.689 : en:Chapter 9
00:40:54.827 : en:Chapter 10
00:44:35.714 : en:Chapter 11
00:49:18.789 : en:Chapter 12
00:55:35.915 : en:Chapter 13
00:59:56.134 : en:Chapter 14
01:04:09.887 : en:Chapter 15
01:10:55.292 : en:Chapter 16
01:15:36.698 : en:Chapter 17
01:23:08.733 : en:Chapter 18
01:27:24.489 : en:Chapter 19
01:35:49.702 : en:Chapter 20
01:40:32.693 : en:Chapter 21
01:44:02.194 : en:Chapter 22
01:46:56.910 : en:Chapter 23
01:49:55.005 : en:Chapter 24












   Похожие торренты   Торрент   Размер 
В этой теме нет новых непрочитанных сообщений. Три билборда на границе Эббинга, Миссури / Three Billboards Outside Ebbing, Missouri (Мартин МакДона) [2017, драма, комедия, криминал, BDRip] DUB+AVO

41 | 11

2.18 ГБ

В этой теме нет новых непрочитанных сообщений. Три билборда на границе Эббинга, Миссури / Three Billboards Outside Ebbing, Missouri (Мартин МакДона) [2017, драма, комедия, криминал, BDRip] DUB

88 | 17

1.46 ГБ

В этой теме нет новых непрочитанных сообщений. Три билборда на границе Эббинга, Миссури / Three Billboards Outside Ebbing, Missouri (Мартин МакДона) [2017, драма, комедия, криминал, BDRip-AVC] DUB

59 | 4

2.2 ГБ

В этой теме нет новых непрочитанных сообщений. Три билборда на границе Эббинга, Миссури / Three Billboards Outside Ebbing, Missouri (Мартин МакДона) [2017, драма, комедия, криминал, HDRip] DUB

14 | 0

2.18 ГБ

В этой теме нет новых непрочитанных сообщений. Три билборда на границе Эббинга, Миссури / Three Billboards Outside Ebbing, Missouri (Мартин МакДона) [2017, драма, комедия, криминал, HDRip] DUB

471 | 12

1.46 ГБ

В этой теме нет новых непрочитанных сообщений. Три билборда на границе Эббинга, Миссури / Three Billboards Outside Ebbing, Missouri (Мартин МакДона) [2017, драма, комедия, криминал, WEB-DLRip] MVO

14 | 0

1.46 ГБ

В этой теме нет новых непрочитанных сообщений. Три билборда на границе Эббинга, Миссури / Three Billboards Outside Ebbing, Missouri (Мартин МакДона) [2017, драма, комедия, криминал, WEB-DLRip] AVO

43 | 6

1.46 ГБ




Вы не можете начинать темы
Вы не можете отвечать на сообщения
Вы не можете редактировать свои сообщения
Вы не можете удалять свои сообщения
Вы не можете добавлять вложения

Перейти:  
 Вход
ppkBB3cker v.2 © 2008-2014 @ PPK
[ Time : 0.021s | 16 Queries | GZIP : Off ]

cron