img image001 image001 image001 image001 image001 image001 image001 image001 image001 image001 image001 image001 image001 image001 image001 image001

Planets Sun Sun Sun
Статистика раздачи
Автор: Nickolas3434 | Размер: 7.82 ГБ | Добавлен: 02 фев 2018
Раздают: 33    Качают: 0
Скачать торрент
Скачать торрент
Описание торрента

СообщениеДобавлено: 02 фев 2018 

Год выпуска: 1997
Страна: США
Жанр: Драма, катастрофа, мелодрама
Продолжительность: 03:14:54
Перевод: Дубляж, Оригинал
Субтитры: Русские (forced, full), Украинские (forced, full), английские (full)
Режиссер: Джеймс Кэмерон

В ролях: Леонардо ДиКаприо, Билл Пэкстон, Бернард Хилл, Фрэнсис Фишер, Кейт Уинслет, Билли Зейн, Кэти Бэйтс, Джонатан Хайд, Дэвид Уорнер, Йоан Граффадд, Виктор Гарбер, Сьюзи Эймис, Марк Линдсэй Чэпмэн, Дэнни Нуччи, Глория Стюарт, Брендан Коннолли, Джеймс Кэмерон
Описание: Титаник... Она ступила на его грандиозную палубу, зная, что лайнер везет ее в будущую тюрьму, имя которой - брак по расчету... Он в последний момент чудом оказался на уровне кают третьего класса, но свято верил, что этот пароход доставит его в будущее, которое в его собственных руках! Кто же мог тогда предположить, что будущее самого лайнера уже предопределено? Но в мире все-же есть непотопляемые вещи... И может быть одна из них - это простая человеческая память?..
Доп. информация: Данный релиз сделан на основе 16-го обновления.С применением технологии HEVC.
Качество: BDRip-HEVC 720p / 60 FPS by Tiberiumsun69
Формат: MKV
Видео кодек: H.265
Аудио кодек: AC3
Видео: HEVC, 1280x720 (16:9), 4000 kbps, 60.000 fps, 0.073 bpp
Аудио#1: AC3 / 5.1 / 48 kHz / 640 kbps / 16 bit | Русский дубляж 2012
Аудио#2: AC3 / 5.1 / 48 kHz / 448 kbps / 16 bit | Украинский дубляж
Аудио#3: AC3 / 5.1 / 48 kHz / 640 kbps / 16 bit | Оригинал



Encoding video to: F:Temp�030.265
x265 10-bit depth 4000kbps 1280x720 59.998fps (701631 frames)
avs4x26x.exe: -L x265_10b.exe "F:Temp�030.avs" --bitrate 4000 --preset medium --profile main10 --level-idc 4.0 --sar 1:1 --output "F:Temp�030.265"
yuv [info]: 1280x720 fps 29999/500 i420p8 sar 1:1 unknown frame count
raw [info]: output file: F:Temp�030.265
x265 [info]: HEVC encoder version 2.6+31-3712d13c09bf
x265 [info]: build info [Windows][MSVC 1912][64 bit] 10bit
x265 [info]: using cpu capabilities: MMX2 SSE2Fast LZCNT SSSE3 SSE4.2 AVX FMA3 BMI2 AVX2
x265 [info]: Main 10 profile, Level-4 (Main tier)
x265 [info]: Thread pool created using 8 threads
x265 [info]: Slices : 1
x265 [info]: frame threads / pool features : 3 / wpp(12 rows)
x265 [info]: Coding QT: max CU size, min CU size : 64 / 8
x265 [info]: Residual QT: max TU size, max depth : 32 / 1 inter / 1 intra
x265 [info]: ME / range / subpel / merge : hex / 57 / 2 / 2
x265 [info]: Keyframe min / max / scenecut / bias: 25 / 250 / 40 / 5.00
x265 [info]: Lookahead / bframes / badapt : 20 / 4 / 2
x265 [info]: b-pyramid / weightp / weightb : 1 / 1 / 0
x265 [info]: References / ref-limit cu / depth : 3 / on / on
x265 [info]: AQ: mode / str / qg-size / cu-tree : 1 / 1.0 / 32 / 1
x265 [info]: Rate Control / qCompress : ABR-4000 kbps / 0.60
x265 [info]: tools: rd=3 psy-rd=2.00 rskip signhide tmvp strong-intra-smoothing
x265 [info]: tools: lslices=4 deblock sao
x265 [info]: frame I: 3900, Avg QP:17.35 kb/s: 24153.78
x265 [info]: frame P: 174780, Avg QP:17.48 kb/s: 10834.92
x265 [info]: frame B: 522951, Avg QP:22.67 kb/s: 1581.14
x265 [info]: Weighted P-Frames: Y:6.4% UV:4.3%
x265 [info]: consecutive B-frames: 3.2% 2.3% 5.6% 76.1% 12.7%
encoded 701631 frames in 41643.37s (16.85 fps), 4011.78 kb/s, Avg QP:21.35
avs [info]: AviSynth 2.60, build:Feb 20 2015 [03:16:45]
avs [info]: Video colorspace: YV12
avs [info]: Video resolution: 1280x720
avs [info]: Video framerate: 29999/500
avs [info]: Video framecount: 701631
avs4x26x [info]: "x265_10b.exe" - --bitrate 4000 --preset medium --profile main10 --level-idc 4.0 --sar 1:1 --output F:Temp�030.265 --frames 701631 --fps 29999/500 --input-res 1280x720 --input-csp i420

General
Unique ID : 254683368369278649989309530317751106835 (0xBF9A3B8843B04E8624CE22FF6BB8BD13)
Complete name : F:ТоррентыТитаник BDRip-HEVC 720p 60fps.mkv
Format : Matroska
Format version : Version 4 / Version 2
File size : 7.82 GiB
Duration : 3 h 14 min
Overall bit rate : 5 746 kb/s
Movie name : Titanic (1997) by Tiberiumsun69
Encoded date : UTC 2018-01-30 05:56:46
Writing application : mkvmerge v20.0.0 ('I Am The Sun') 64-bit
Writing library : libebml v1.3.5 + libmatroska v1.4.8
Video
ID : 1
Format : HEVC
Format/Info : High Efficiency Video Coding
Format profile : Main 10@L4@Main
Codec ID : V_MPEGH/ISO/HEVC
Duration : 3 h 14 min
Bit rate : 4 014 kb/s
Width : 1 280 pixels
Height : 720 pixels
Display aspect ratio : 16:9
Frame rate mode : Constant
Frame rate : 60.000 FPS
Color space : YUV
Chroma subsampling : 4:2:0
Bit depth : 10 bits
Bits/(Pixel*Frame) : 0.073
Stream size : 5.46 GiB (70%)
Default : Yes
Forced : No
Audio #1
ID : 2
Format : AC-3
Format/Info : Audio Coding 3
Codec ID : A_AC3
Duration : 3 h 14 min
Bit rate mode : Constant
Bit rate : 640 kb/s
Channel(s) : 6 channels
Channel positions : Front: L C R, Side: L R, LFE
Sampling rate : 48.0 kHz
Frame rate : 31.250 FPS (1536 SPF)
Bit depth : 16 bits
Compression mode : Lossy
Stream size : 892 MiB (11%)
Title : Дубляж 2012
Language : Russian
Service kind : Complete Main
Default : Yes
Forced : No
Audio #2
ID : 3
Format : AC-3
Format/Info : Audio Coding 3
Codec ID : A_AC3
Duration : 3 h 14 min
Bit rate mode : Constant
Bit rate : 448 kb/s
Channel(s) : 6 channels
Channel positions : Front: L C R, Side: L R, LFE
Sampling rate : 48.0 kHz
Frame rate : 31.250 FPS (1536 SPF)
Bit depth : 16 bits
Compression mode : Lossy
Stream size : 624 MiB (8%)
Title : Дубляж
Language : Ukrainian
Service kind : Complete Main
Default : No
Forced : No
Audio #3
ID : 4
Format : AC-3
Format/Info : Audio Coding 3
Codec ID : A_AC3
Duration : 3 h 14 min
Bit rate mode : Constant
Bit rate : 640 kb/s
Channel(s) : 6 channels
Channel positions : Front: L C R, Side: L R, LFE
Sampling rate : 48.0 kHz
Frame rate : 31.250 FPS (1536 SPF)
Bit depth : 16 bits
Compression mode : Lossy
Stream size : 892 MiB (11%)
Title : Original
Language : English
Service kind : Complete Main
Default : No
Forced : No
Text #1
ID : 5
Format : UTF-8
Codec ID : S_TEXT/UTF8
Codec ID/Info : UTF-8 Plain Text
Duration : 3 h 13 min
Bit rate : 0 b/s
Count of elements : 7
Stream size : 243 Bytes (0%)
Title : Русские forced, Blu-ray CEE
Language : Russian
Default : Yes
Forced : No
Text #2
ID : 6
Format : UTF-8
Codec ID : S_TEXT/UTF8
Codec ID/Info : UTF-8 Plain Text
Duration : 3 h 13 min
Bit rate : 56 b/s
Count of elements : 1884
Stream size : 80.3 KiB (0%)
Title : Русские , Blu-ray CEE
Language : Russian
Default : No
Forced : No
Text #3
ID : 7
Format : UTF-8
Codec ID : S_TEXT/UTF8
Codec ID/Info : UTF-8 Plain Text
Duration : 3 h 4 min
Bit rate : 0 b/s
Count of elements : 7
Stream size : 256 Bytes (0%)
Title : Украинские captions, Blu-ray CEE
Language : Ukrainian
Default : No
Forced : No
Text #4
ID : 8
Format : UTF-8
Codec ID : S_TEXT/UTF8
Codec ID/Info : UTF-8 Plain Text
Duration : 3 h 12 min
Bit rate : 67 b/s
Count of elements : 1856
Stream size : 95.1 KiB (0%)
Title : Украинские Blu-ray CEE
Language : Ukrainian
Default : No
Forced : No
Text #5
ID : 9
Format : UTF-8
Codec ID : S_TEXT/UTF8
Codec ID/Info : UTF-8 Plain Text
Duration : 3 h 1 min
Bit rate : 46 b/s
Count of elements : 2103
Stream size : 61.4 KiB (0%)
Title : Английские
Language : English
Default : No
Forced : No
Menu
00:00:00.000 : en:00:00:00.000
00:01:24.376 : en:00:01:24.376
00:04:39.988 : en:00:04:39.988
00:08:26.131 : en:00:08:26.131
00:10:46.771 : en:00:10:46.771
00:12:52.647 : en:00:12:52.647
00:16:52.428 : en:00:16:52.428
00:20:07.748 : en:00:20:07.748
00:23:38.876 : en:00:23:38.876
00:26:26.543 : en:00:26:26.543
00:29:03.366 : en:00:29:03.366
00:29:37.526 : en:00:29:37.526
00:34:59.931 : en:00:34:59.931
00:36:48.623 : en:00:36:48.623
00:42:59.160 : en:00:42:59.160
00:45:26.098 : en:00:45:26.098
00:47:11.620 : en:00:47:11.620
00:53:33.043 : en:00:53:33.043
00:56:47.988 : en:00:56:47.988
01:05:32.053 : en:01:05:32.053
01:10:19.965 : en:01:10:19.965
01:14:06.358 : en:01:14:06.358
01:16:10.691 : en:01:16:10.691
01:19:59.044 : en:01:19:59.044
01:22:50.507 : en:01:22:50.507
01:23:40.056 : en:01:23:40.056
01:28:21.629 : en:01:28:21.629
01:29:19.854 : en:01:29:19.854
01:32:52.275 : en:01:32:52.275
01:36:59.104 : en:01:36:59.104
01:44:41.149 : en:01:44:41.149
01:46:21.041 : en:01:46:21.041
01:47:58.847 : en:01:47:58.847
01:50:11.104 : en:01:50:11.104
01:52:21.401 : en:01:52:21.401
01:53:54.327 : en:01:53:54.327
01:55:21.831 : en:01:55:21.831
01:56:10.880 : en:01:56:10.880
01:57:53.232 : en:01:57:53.232
02:06:38.340 : en:02:06:38.340
02:08:49.972 : en:02:08:49.972
02:11:22.082 : en:02:11:22.082
02:15:42.550 : en:02:15:42.550
02:19:43.458 : en:02:19:43.458
02:21:24.559 : en:02:21:24.559
02:25:28.761 : en:02:25:28.761
02:27:28.422 : en:02:27:28.422
02:29:07.271 : en:02:29:07.271
02:29:56.695 : en:02:29:56.695
02:33:31.535 : en:02:33:31.535
02:36:52.360 : en:02:36:52.360
02:38:33.878 : en:02:38:33.878
02:40:34.666 : en:02:40:34.666
02:45:00.640 : en:02:45:00.640
02:47:48.808 : en:02:47:48.808
02:49:22.526 : en:02:49:22.526
02:52:09.610 : en:02:52:09.610
02:53:41.327 : en:02:53:41.327
02:57:53.495 : en:02:57:53.495
02:59:35.305 : en:02:59:35.305
03:01:29.252 : en:03:01:29.252
03:03:13.648 : en:03:03:13.648
03:04:57.877 : en:03:04:57.877
03:07:19.644 : en:03:07:19.644



   Похожие торренты   Торрент   Размер 
В этой теме нет новых непрочитанных сообщений. Титаник / Titanic (1997) BDRip 720p от R.G. HD-Films | 60 fps | D | A | Open Mate

1 | 8

21.16 ГБ

В этой теме нет новых непрочитанных сообщений. Титаник / Titanic (1997) BDRip-AVC от R.G. HD-Films | 60 fps | D | A | Open Mate

14 | 21

14.41 ГБ

В этой теме нет новых непрочитанных сообщений. Титаник / Titanic (1997) BDRip 1080p от R.G. HD-Films | 60 fps | D | A | Open Mate

31 | 58

34.94 ГБ

В этой теме нет новых непрочитанных сообщений. Титаник / Titanic (1997) BDRip HEVC 1080p | D | Open Mate

36 | 8

17.17 ГБ

В этой теме нет новых непрочитанных сообщений. Титаник / Titanic (1997) BDRip HEVC 720p | D

50 | 21

6.8 ГБ

В этой теме нет новых непрочитанных сообщений. Титаник / Titanic (1997) BDRip 720p от Leonardo and Scarabey | Open matte

86 | 30

9.72 ГБ

В этой теме нет новых непрочитанных сообщений. Титаник / Titanic (1997) BDRip 1080 | D, P, P2, A | Open matte

21 | 3

34.27 ГБ




Вы не можете начинать темы
Вы не можете отвечать на сообщения
Вы не можете редактировать свои сообщения
Вы не можете удалять свои сообщения
Вы не можете добавлять вложения

Перейти:  
 Вход
ppkBB3cker v.2 © 2008-2014 @ PPK
[ Time : 0.041s | 15 Queries | GZIP : Off ]

cron