img image001 image001 image001 image001 image001 image001 image001 image001 image001 image001 image001 image001 image001 image001 image001 image001

Planets Sun Sun Sun
Статистика раздачи
Автор: Nickolas3434 | Размер: 1.46 ГБ | Добавлен: 18 янв 2018
Раздают: 3878    Качают: 207
Скачать торрент
Скачать торрент
Описание торрента

СообщениеДобавлено: 18 янв 2018 

Информация о фильме
Название: Форма воды
Оригинальное название: The Shape of Water
Год выхода: 2017
Жанр: ужасы, фэнтези, триллер, драма, мелодрама, приключения
Режиссер: Гильермо дель Торо
В ролях: Салли Хокинс, Майкл Шеннон, Ричард Дженкинс, Октавия Спенсер, Майкл Стулбарг, Даг Джонс, Дэвид Хьюлетт, Ник Сирси, Стюарт Арнотт и другие
О фильме:
Действие разворачивается в 1963 году. Главная героиня — немая уборщица в научной лаборатории. В стенах секретного учреждения идёт работа по изучению отловленного человека-амфибии. Женщина влюбляется в мутанта и помогает ему бежать...

Страна: Канада, США, Bull Productions, Double Dare You (DDY), Fox Searchlight Pictures
Продолжительность: 02:03:24
Перевод: Любительский (двухголосый закадровый) | HiWay Grope
Файл
Кодек: XviD
Качество: DVDScr
Видео: 720x384, 30 fps, ~1489 kbps avg, 0.18 bit/pixel
Звук:
Аудио rus: AC3, 48 kHz, 2 ch, 192 Kbps
Субтитры: отсутствуют
Реклама: присутствует
Семпл
General
Complete name : F:HiWay Grope-сведениеThe.Shape.of.Water.2017.DVDScreener.rus.sub.FOC-PBThe.Shape.of.Water.2017.DVDScr.HiWay Grope.avi
Format : AVI
Format/Info : Audio Video Interleave
File size : 1.46 GiB
Duration : 2h 3mn
Overall bit rate : 1 693 Kbps
Writing application : VirtualDubMod 1.5.10.3 (build 2550/release)
Writing library : VirtualDubMod build 2550/release
Video
ID : 0
Format : MPEG-4 Visual
Format profile : Advanced Simple@L5
Format settings, BVOP : 1
Format settings, QPel : No
Format settings, GMC : No warppoints
Format settings, Matrix : Default (MPEG)
Codec ID : XVID
Codec ID/Hint : XviD
Duration : 2h 3mn
Bit rate : 1 490 Kbps
Width : 720 pixels
Height : 384 pixels
Display aspect ratio : 1.85:1
Frame rate : 30.000 fps
Color space : YUV
Chroma subsampling : 4:2:0
Bit depth : 8 bits
Scan type : Progressive
Compression mode : Lossy
Bits/(Pixel*Frame) : 0.180
Stream size : 1.28 GiB (88%)
Writing library : XviD 73
Audio
ID : 1
Format : AC-3
Format/Info : Audio Coding 3
Mode extension : CM (complete main)
Format settings, Endianness : Big
Codec ID : 2000
Duration : 2h 3mn
Bit rate mode : Constant
Bit rate : 192 Kbps
Channel(s) : 2 channels
Channel positions : Front: L R
Sampling rate : 48.0 KHz
Frame rate : 31.250 fps (1536 spf)
Compression mode : Lossy
Stream size : 169 MiB (11%)
Alignment : Split accross interleaves
Interleave, duration : 33 ms (1.00 video frame)
Interleave, preload duration : 500 ms


Релиз от: HiWay Grope



   Похожие торренты   Торрент   Размер 
В этой теме нет новых непрочитанных сообщений. Форма воды / The Shape of Water (2017) DVDScr | Sub

166 | 13

1.6 ГБ

В этой теме нет новых непрочитанных сообщений. Форма воды / The Shape of Water (2017) DVDScr | GreenРай Studio

40 | 12

1.36 ГБ

В этой теме нет новых непрочитанных сообщений. Форма воды / The Shape of Water (Гильермо дель Торо) [2017, фэнтези, драма, BDRip] AVO

6 | 0

2.06 ГБ

В этой теме нет новых непрочитанных сообщений. Форма воды / The Shape of Water (Гильермо дель Торо) [2017, фэнтези, драма, BDRip] DUB

692 | 27

1.46 ГБ

В этой теме нет новых непрочитанных сообщений. Форма воды / The Shape of Water (Гильермо дель Торо) [2017, фэнтези, драма, HDRip] DUB

100 | 5

1.37 ГБ

В этой теме нет новых непрочитанных сообщений. Форма воды / The Shape of Water (Гильермо дель Торо) [2017, фэнтези, драма, BDRip] DUB

255 | 8

2.13 ГБ

В этой теме нет новых непрочитанных сообщений. Форма воды / The Shape of Water (Гильермо дель Торо) [2017, фэнтези, драма, BDRip-AVC] DUB

44 | 4

1.4 ГБ




Вы не можете начинать темы
Вы не можете отвечать на сообщения
Вы не можете редактировать свои сообщения
Вы не можете удалять свои сообщения
Вы не можете добавлять вложения

Перейти:  
 Вход
ppkBB3cker v.2 © 2008-2014 @ PPK
[ Time : 0.042s | 17 Queries | GZIP : Off ]

cron