img image001 image001 image001 image001 image001 image001 image001 image001 image001 image001 image001 image001 image001 image001 image001 image001

Planets Sun Sun Sun
Статистика раздачи
Автор: Nickolas3434 | Размер: 2.18 ГБ | Добавлен: 12 янв 2018
Раздают: 20    Качают: 0
Скачать торрент
Скачать торрент
Описание торрента

СообщениеДобавлено: 12 янв 2018 

Информация о фильме
Название: Око за око
Оригинальное название: Eye for an Eye
Год выхода: 1996
Жанр: триллер, драма, криминал
Режиссер: Джон Шлезингер
В ролях: Салли Филд, Эд Харрис, Оливия Бернетт, Александра Кайл, Кифер Сазерленд, Джо Мантенья, Беверли Д’Анджело, Даррел Ларсон, Чарлэйн Вудард, Филип Бейкер Холл
О фильме:
У Карен МакКанн случилась чудовищная трагедия: в дом МакКаннов ворвался подонок и убил её семнадцатилетнюю дочь Джули. Преступника удалось арестовать, но Карен ждал новый кошмар. Невыносимая боль от жуткого горя сменилась шоком и яростью. Несовершенная судебная машина допустила непоправимую ошибку: убийца девушки вышел на свободу. И что самое ужасное — у него не пропал вкус к чужой смерти. Но ведь кто-то должен заставить жестокого монстра заплатить по счетам, если правосудие бессильно?! Судьёй становится сама Карен, которая терпеливо и тщательно начинает разрабатывать план мести…

Страна: США
Продолжительность: 01:41:15
Перевод #1: Профессиональный (двухголосый закадровый) Премьер-Видео
Перевод #2: Авторский (одноголосый закадровый) А. Гаврилов
Файл
Формат: MKV
Видео: AVC, 1024x576 (16:9), 23.976 fps, 2 309 Kbps (0.163 bit/pixel)
Aудио#1: Russian: 48 kHz, AC3, 2/0 (L,R) ch, ~192.00 kbps avg |Двухголосый закадровый, Премьер-Видео|
Aудио#2: Russian: 48 kHz, AC3, 2/0 (L,R) ch, ~192.00 kbps avg |Одноголосый закадровый, А. Гаврилов|
Aудио#3: English: 48 kHz, AC3, 3/2 (L,C,R,l,r) + LFE ch, ~384.00 kbps avg
Субтитры: английские
Релиз: &
Формат : Matroska
Версия формата : Version 2
Размер файла : 2,18 Гбайт
Продолжительность : 1 ч. 41 м.
Общий поток : 3078 Кбит/сек
Название фильма : Око за око / Eye for an Eye (1996)
Дата кодирования : UTC 2017-09-04 06:17:41
Программа кодирования : mkvmerge v5.3.0 ('I could have danced') built on Feb 9 2012 10:38:07
Библиотека кодирования : libebml v1.2.3 + libmatroska v1.3.0
Attachments : poster (11).jpg
Видео
Идентификатор : 1
Формат : AVC
Формат/Информация : Advanced Video Codec
Профиль формата : High@L4.1
Параметр CABAC формата : Да
Параметр ReFrames формата : 12 кадров
Идентификатор кодека : V_MPEG4/ISO/AVC
Продолжительность : 1 ч. 41 м.
Битрейт : 2309 Кбит/сек
Ширина : 1024 пикселя
Высота : 576 пикселей
Соотношение сторон : 16:9
Режим частоты кадров : Постоянный
Частота кадров : 23,976 (24000/1001) кадра/сек
Цветовое пространство : YUV
Субдискретизация насыщенности : 4:2:0
Битовая глубина : 8 бит
Тип развёртки : Прогрессивная
Бит/(Пиксели*Кадры) : 0.163
Размер потока : 1,59 Гбайт (73%)
Библиотека кодирования : x264 core 146 r2538 121396c
Настройки программы : cabac=1 / ref=12 / deblock=1:-3:-3 / analyse=0x3:0x133 / me=umh / subme=11 / psy=1 / psy_rd=1.00:0.10 / mixed_ref=1 / me_range=32 / chroma_me=1 / trellis=2 / 8x8dct=1 / cqm=0 / deadzone=21,11 / fast_pskip=0 / chroma_qp_offset=-3 / threads=12 / lookahead_threads=3 / sliced_threads=0 / nr=0 / decimate=0 / interlaced=0 / bluray_compat=0 / constrained_intra=0 / bframes=11 / b_pyramid=2 / b_adapt=2 / b_bias=0 / direct=3 / weightb=1 / open_gop=0 / weightp=2 / keyint=240 / keyint_min=23 / scenecut=40 / intra_refresh=0 / rc=2pass / mbtree=0 / bitrate=2309 / ratetol=1.0 / qcomp=0.60 / qpmin=0 / qpmax=69 / qpstep=4 / cplxblur=20.0 / qblur=0.5 / ip_ratio=1.40 / pb_ratio=1.30 / aq=3:0.90
Язык : English
Default : Да
Forced : Нет
Аудио #1
Идентификатор : 2
Формат : AC-3
Формат/Информация : Audio Coding 3
Расширение режима : CM (complete main)
Параметр Endianness формата : Big
Идентификатор кодека : A_AC3
Продолжительность : 1 ч. 41 м.
Вид битрейта : Постоянный
Битрейт : 192 Кбит/сек
Каналы : 2 канала
Расположение каналов : Front: L R
Частота : 48,0 КГц
Частота кадров : 31,250 кадров/сек (1536 spf)
Битовая глубина : 16 бит
Метод сжатия : С потерями
Размер потока : 139 Мбайт (6%)
Заголовок : Двухголосый, Премьер Видео
Язык : Russian
Default : Да
Forced : Нет
Аудио #2
Идентификатор : 3
Формат : AC-3
Формат/Информация : Audio Coding 3
Расширение режима : CM (complete main)
Параметр Endianness формата : Big
Идентификатор кодека : A_AC3
Продолжительность : 1 ч. 41 м.
Вид битрейта : Постоянный
Битрейт : 192 Кбит/сек
Каналы : 2 канала
Расположение каналов : Front: L R
Частота : 48,0 КГц
Частота кадров : 31,250 кадров/сек (1536 spf)
Битовая глубина : 16 бит
Метод сжатия : С потерями
Размер потока : 139 Мбайт (6%)
Заголовок : Одноголосый, А. Гаврилов
Язык : Russian
Default : Нет
Forced : Нет
Аудио #3
Идентификатор : 4
Формат : AC-3
Формат/Информация : Audio Coding 3
Расширение режима : CM (complete main)
Параметр Endianness формата : Big
Идентификатор кодека : A_AC3
Продолжительность : 1 ч. 41 м.
Вид битрейта : Постоянный
Битрейт : 384 Кбит/сек
Каналы : 6 каналов
Расположение каналов : Front: L C R, Side: L R, LFE
Частота : 48,0 КГц
Частота кадров : 31,250 кадров/сек (1536 spf)
Битовая глубина : 16 бит
Метод сжатия : С потерями
Размер потока : 278 Мбайт (12%)
Язык : English
Default : Нет
Forced : Нет
Текст
Идентификатор : 5
Формат : UTF-8
Идентификатор кодека : S_TEXT/UTF8
Идентификатор кодека/Информация : UTF-8 Plain Text
Язык : English
Default : Нет
Forced : Нет
Меню
00:00:00.000 : en:Running Late
00:09:17.000 : en:Sometimes Things Happen
00:16:02.000 : en:Face Of A Killer
00:23:59.000 : en:He's The One
00:29:09.000 : en:Pre-trial Motion
00:35:53.000 : en:Following Robert Doob
00:41:06.000 : en:A Warning
00:48:39.000 : en:School Yard
00:56:45.000 : en:Michael's Garage
01:01:20.000 : en:Self Defense
01:11:14.000 : en:Don't Do It
01:21:11.000 : en:Justification
01:29:22.000 : en:A Eye For An Eye
01:36:59.000 : en:End Credits



   Похожие торренты   Торрент   Размер 
В этой теме нет новых непрочитанных сообщений. Убрать перископ / Down Periscope (1996) WEB-DLRip от MegaPeer | A, P, P2

348 | 44

2.21 ГБ

В этой теме нет новых непрочитанных сообщений. Майкл / Michael (1996) WEB-DLRip 720p от k.e.n & MegaPeer | P2, A

7 | 0

4.37 ГБ

В этой теме нет новых непрочитанных сообщений. Газонокосильщик 2: За пределами киберпространства / Lawnmower Man 2: Beyond Cyberspace (1996) WEB-DLRip-AVC от k.e.n & MegaPeer | Р, Р2, А

3 | 0

2.16 ГБ

В этой теме нет новых непрочитанных сообщений. Дорога домой 2: Затерянные в Сан-Франциско / Homeward Bound II: Lost in San Francisco (1996) WEB-DLRip от MegaPeer | P, A

45 | 11

1.7 ГБ

В этой теме нет новых непрочитанных сообщений. Бивис и Батт-Хед уделывают Америку / Beavis and Butt-Head Do America (1996) WEB-DLRip от MegaPeer | P, P2

3 | 1

1.79 ГБ

В этой теме нет новых непрочитанных сообщений. Котенок (1996) BDRip от MegaPeer | JPN Transfer

17 | 0

1.46 ГБ

В этой теме нет новых непрочитанных сообщений. Дьявольщина / Diabolique (1996) WEBRip-AVC от k.e.n & MegaPeer | D, P, Р2, A

44 | 2

2.52 ГБ




Вы не можете начинать темы
Вы не можете отвечать на сообщения
Вы не можете редактировать свои сообщения
Вы не можете удалять свои сообщения
Вы не можете добавлять вложения

Перейти:  
 Вход
ppkBB3cker v.2 © 2008-2014 @ PPK
[ Time : 0.020s | 18 Queries | GZIP : Off ]

cron