img image001 image001 image001 image001 image001 image001 image001 image001 image001 image001 image001 image001 image001 image001 image001 image001

Planets Sun Sun Sun
Статистика раздачи
Автор: Nickolas3434 | Размер: 27.11 ГБ | Добавлен: 15 дек 2017
Раздают: 0    Качают: 0
Скачать торрент
Скачать торрент
Описание торрента

СообщениеДобавлено: 15 дек 2017 

Информация о фильме
Название: Дело самоубийцы
Оригинальное название: The deadly affair
Год выхода: 1966
Жанр: триллер, драма, мелодрама, криминал, детектив
Режиссер: Сидни Люмет
В ролях: Джеймс Мейсон, Симона Синьоре, Максимилиан Шелл, Харриет Андерссон, Гарри Эндрюс, Кеннет Хейг, Рой Киннер, Макс Эдриан, Линн Редгрейв, Роберт Флеминг, Лесли Сэндс, Корин Редгрейв, Эндрю Андреас, Шератон Блаунт, Том Боуман, Майкл Бреннан, Виктор Брукс, Мюррэй Браун, Майкл Брайант, Мария Чарльз, Харольд Койн, Дэн Дарнелли, Джон Димеч, Уильям Дайсарт, Алан Гиббс, Патрик Халпин, Пол Хардвик, Джанет Харгривз, Питер Харрисон
Описание: Агент секретной службы Чарльз Доббс проводит служебное расследование по анонимному письму, в котором говорится, что сотрудник Министерства иностранных дел Сэмюэль Феннан — шпион. После доверительного разговора с начальством Доббс узнает, что Феннан покончил с собой. Руководство устраивает версия самоубийства, а вот Доббса, особенно после посещения вдовы Эльзы Феннан, — нет. С помощью друзей Менделя и Билла он начинает собственное расследование.

Страна: Великобритания
Продолжительность: 01:46:55
Перевод 1: Профессиональный (многоголосый закадровый) - ТРК "Петербург 5 канал"
Перевод 2: Профессиональный (двухголосый закадровый) - НТВ+
Перевод 3: Профессиональный (двухголосый закадровый) - Пифагор
Субтитры: английские
Оригинальная аудиодорожка: английский
Файл
Качество: BDRemux 1080р
Видео: 35000 Кбит/сек, NTSC 1920*1080 (16:9), 23,976 кадра/сек, AVC
Аудио 1: Русский, 192 Кбит/сек, 48,0 КГц, 2 канала, AC-3 - 5 канал
Аудио 2: Русский, 192 Кбит/сек, 48,0 КГц, 2 канала, AC-3 - НТВ+
Аудио 3: Русский, 192 Кбит/сек, 48,0 КГц, 2 канала, AC-3 - Пифагор
Аудио 4: Английский, 712 Кбит/сек, 48,0 КГц, 24 бит, 1 канал, FLAC

Общее
Уникальный идентификатор : 243594773331098107371722056035338031615 (0xB742A5965A6DA9858A3989A1F30C11FF)
Полное имя : Дело самоубийцы (1966) BDRemux 1080p.mkv
Формат : Matroska
Версия формата : Version 4 / Version 2
Размер файла : 27,1 Гбайт
Продолжительность : 1 ч. 46 м.
Режим общего битрейта : Переменный
Общий поток : 36,3 Мбит/сек
Название фильма : The deadly affair (1966)
Дата кодирования : UTC 2017-09-13 03:49:43
Программа кодирования : mkvmerge v15.0.0 ('Duel with the Devil') 64-bit
Библиотека кодирования : libebml v1.3.5 + libmatroska v1.4.5
Видео
Идентификатор : 1
Формат : AVC
Формат/Информация : Advanced Video Codec
Профиль формата : High@L4.1
Настройки формата : CABAC / 3 Ref Frames
Параметр CABAC формата : Да
Параметр RefFrames формата : 3 кадра
Идентификатор кодека : V_MPEG4/ISO/AVC
Продолжительность : 1 ч. 46 м.
Вид битрейта : Переменный
Битрейт : 35,0 Мбит/сек
Максимальный битрейт : 40,0 Мбит/сек
Ширина : 1920 пикселей
Высота : 1080 пикселей
Соотношение сторон : 16:9
Режим частоты кадров : Постоянный
Частота кадров : 23,976 (24000/1001) кадра/сек
Цветовое пространство : YUV
Субдискретизация насыщенности : 4:2:0
Битовая глубина : 8 бит
Тип развёртки : Прогрессивная
Бит/(Пиксели*Кадры) : 0.704
Размер потока : 26,1 Гбайт (96%)
Библиотека кодирования : x264 core 148 r2705 3f5ed56
Настройки программы : cabac=1 / ref=4 / deblock=0:-1:-1 / analyse=0x3:0x133 / me=umh / subme=10 / psy=1 / psy_rd=1.00:0.15 / mixed_ref=1 / me_range=24 / chroma_me=1 / trellis=2 / 8x8dct=1 / cqm=0 / deadzone=21,11 / fast_pskip=1 / chroma_qp_offset=-3 / threads=12 / lookahead_threads=1 / sliced_threads=0 / slices=4 / nr=0 / decimate=1 / interlaced=0 / bluray_compat=1 / constrained_intra=0 / bframes=3 / b_pyramid=1 / b_adapt=2 / b_bias=0 / direct=3 / weightb=1 / open_gop=1 / weightp=1 / keyint=24 / keyint_min=1 / scenecut=40 / intra_refresh=0 / rc_lookahead=24 / rc=abr / mbtree=0 / bitrate=35000 / ratetol=1.0 / qcomp=0.30 / qpmin=0 / qpmax=69 / qpstep=4 / vbv_maxrate=40000 / vbv_bufsize=30000 / nal_hrd=vbr / filler=0 / ip_ratio=1.40 / pb_ratio=1.30 / aq=1:1.00
Язык : English
Default : Да
Forced : Нет
Цветовой диапазон : Limited
Основные цвета : BT.709
Характеристики трансфера : BT.709
Коэффициенты матрицы : BT.709
Аудио #1
Идентификатор : 2
Формат : AC-3
Формат/Информация : Audio Coding 3
Параметр Endianness формата : Big
Идентификатор кодека : A_AC3
Продолжительность : 1 ч. 46 м.
Вид битрейта : Постоянный
Битрейт : 192 Кбит/сек
Каналы : 2 канала
Расположение каналов : Front: L R
Частота : 48,0 КГц
Частота кадров : 31,250 кадров/сек (1536 SPF)
Битовая глубина : 16 бит
Метод сжатия : С потерями
Размер потока : 147 Мбайт (1%)
Заголовок : MVO
Язык : Russian
Default : Да
Forced : Нет
Аудио #2
Идентификатор : 3
Формат : AC-3
Формат/Информация : Audio Coding 3
Параметр Endianness формата : Big
Идентификатор кодека : A_AC3
Продолжительность : 1 ч. 46 м.
Вид битрейта : Постоянный
Битрейт : 192 Кбит/сек
Каналы : 2 канала
Расположение каналов : Front: L R
Частота : 48,0 КГц
Частота кадров : 31,250 кадров/сек (1536 SPF)
Битовая глубина : 16 бит
Метод сжатия : С потерями
Размер потока : 147 Мбайт (1%)
Заголовок : DVO
Язык : Russian
Default : Нет
Forced : Нет
Аудио #3
Идентификатор : 4
Формат : AC-3
Формат/Информация : Audio Coding 3
Параметр Endianness формата : Big
Идентификатор кодека : A_AC3
Продолжительность : 1 ч. 46 м.
Вид битрейта : Постоянный
Битрейт : 192 Кбит/сек
Каналы : 2 канала
Расположение каналов : Front: L R
Частота : 48,0 КГц
Частота кадров : 31,250 кадров/сек (1536 SPF)
Битовая глубина : 16 бит
Метод сжатия : С потерями
Размер потока : 147 Мбайт (1%)
Заголовок : DVO
Язык : Russian
Default : Нет
Forced : Нет
Аудио #4
Идентификатор : 5
Формат : FLAC
Формат/Информация : Free Lossless Audio Codec
Идентификатор кодека : A_FLAC
Продолжительность : 1 ч. 46 м.
Вид битрейта : Переменный
Битрейт : 712 Кбит/сек
Каналы : 1 канал
Частота : 48,0 КГц
Частота кадров : 11,719 кадров/сек (4096 SPF)
Битовая глубина : 24 бит
Размер потока : 544 Мбайт (2%)
Заголовок : original
Библиотека кодирования : libFLAC 1.2.1 (UTC 2007-09-17)
Язык : English
Default : Нет
Forced : Нет
Текст
Идентификатор : 6
Формат : UTF-8
Идентификатор кодека : S_TEXT/UTF8
Идентификатор кодека/Информация : UTF-8 Plain Text
Продолжительность : 1 ч. 44 м.
Битрейт : 66 бит/сек
ElementCount : 1522
Размер потока : 51,2 Кбайт (0%)
Заголовок : srt
Язык : English
Default : Нет
Forced : Нет
Меню
00:00:00.000 : en:Chapter 1
00:06:30.348 : en:Chapter 2
00:14:28.200 : en:Chapter 3
00:28:45.306 : en:Chapter 4
00:43:38.616 : en:Chapter 5
00:54:31.434 : en:Chapter 6
01:04:37.123 : en:Chapter 7
01:18:20.362 : en:Chapter 8
01:30:47.316 : en:Chapter 9
01:38:33.908 : en:Chapter 10



   Похожие торренты   Торрент   Размер 
В этой теме нет новых непрочитанных сообщений. Дело самоубийцы / The Deadly Affair (1966) BDRip от Koenig | P

4 | 0

1.45 ГБ

В этой теме нет новых непрочитанных сообщений. Правое дело / Just Cause (1995) BDRemux 1080р | D, P, A

3 | 0

20.51 ГБ

В этой теме нет новых непрочитанных сообщений. Закон границы / Hudutlarin kanunu (1966) BDRemux 1080р | L1

4 | 1

14.64 ГБ

В этой теме нет новых непрочитанных сообщений. Токийский скиталец / Tôkyô nagaremono (1966) BDRemux 1080р | L1

0 | 0

21.01 ГБ

В этой теме нет новых непрочитанных сообщений. Хороший, плохой, злой / Il buono, il brutto, il cattivo / The Good, the Bad and the Ugly (1966) BDRemux 1080р | Remastered | P, P2, A

8 | 1

39.39 ГБ

В этой теме нет новых непрочитанных сообщений. Большое дело / A Global Affair (1964) TVRip | Sub

30 | 9

1.08 ГБ

В этой теме нет новых непрочитанных сообщений. Дело Макомбера / The Macomber Affair (1947) DVDRip | Sub

44 | 18

748.17 МБ




Вы не можете начинать темы
Вы не можете отвечать на сообщения
Вы не можете редактировать свои сообщения
Вы не можете удалять свои сообщения
Вы не можете добавлять вложения

Перейти:  
 Вход
ppkBB3cker v.2 © 2008-2014 @ PPK
[ Time : 0.018s | 17 Queries | GZIP : Off ]

cron