img image001 image001 image001 image001 image001 image001 image001 image001 image001 image001 image001 image001 image001 image001 image001 image001

Planets Sun Sun Sun
Статистика раздачи
Автор: Nickolas3434 | Размер: 47.06 ГБ | Добавлен: 15 дек 2017
Раздают: 15    Качают: 6
Скачать торрент
Скачать торрент
Описание торрента

СообщениеДобавлено: 15 дек 2017 

Информация о фильме
Название: Ангелы и Демоны
Оригинальное название: Angels & Demons
Год выхода: 2009
Жанр: Триллер, драма, детектив, экранизация
Режиссер: Рон Ховард
В ролях: Том Хэнкс, Эван МакГрегор, Аилит Зорор, Стеллан Скарсгард, Пьерфранческо Фавино, Николай Ли Каас, Армин Мюллер-Шталь, Туре Линдхардт, Дэвид Паскеси, Козимо Фуско
О фильме:
Весь мир замер в ожидании свершения древнейшей церемонии - выбора главы католической церкви Папы Римского, но в судьбоносное решение вмешивается некая могущественная сила - заклятый враг католической церкви - таинственный орден Иллюминатов! Кандидаты на священный пост подвергаются свирепой ритуальной расправе один за другим. Перед лицом смертельной угрозы Ватикан вынужден обратится за помощью к профессору - эксперту по религиозной символике Роберту Лэнгдону, который находит доказательства возрождения могущественного тайного братства, жестоко истребляемого в Средние века. Вместе со своей напарницей - талантливым ученым Витторией Ветра - Лэнгдон начинает собственное расследование, увлекающие их в лабиринты замурованных склепов, тайных подземелий и заброшенных храмов - в самое сокровенное хранилище в мире. Мистической тропой символов ученые продвигаются к невероятной истине, которая дает Ватикану единственную надежду на спасение. Но в неистовом желании расквитаться и показать свое превосходство иллюминаты не остановятся ни перед чем! Настала пора для человечества узнать правду! Экранизация по роману Дэна Брауна.

Страна: США, Италия
Студия: Columbia Pictures, Imagine Entertainment, Skylark Productions
Продолжительность: 02:18:37
Перевод: Дублированный | Лицензия
Файл
Качество: BDRemux 2160p
Видео: MPEG-H HEVC HDR Video, 3840x2160, 42.3 Mbit/s, 23.976 fps
Звук:
Аудио #01: 48 kHz, AC3, 5.1, 640 Kbps | Дублированный | RUS |
Аудио #02: 48 kHz, TrueHD, 7.1, 4913 Kbps | Оригинал | ENG |
Аудио #03: 48 kHz, AC3, 5.1, 640 Kbps | Оригинал | ENG |
Субтитры: Русские (forced, full), английские

General
Unique ID : 207055551329975736107745084469925669420 (0x9BC572DA73823186980693EBCF606A2C)
Complete name : G:VideoSSDAngels.&.Demons.2009.Theatrical.Cut.BDREMUX.2160p.4K.UltraHD.HEVC.HDR.ExKInoRay.mkv
Format : Matroska
Format version : Version 4 / Version 2
File size : 47.1 GiB
Duration : 2 h 18 min
Overall bit rate mode : Variable
Overall bit rate : 48.6 Mb/s
Movie name : Angels & Demons 2009 from ExKinoRay
Encoded date : UTC 2017-12-14 05:17:00
Writing application : mkvmerge v18.0.0 ('Apricity') 64-bit
Writing library : libebml v1.3.5 + libmatroska v1.4.8
Video
ID : 1
Format : HEVC
Format/Info : High Efficiency Video Coding
Format profile : Main 10@L5.1@High
Codec ID : V_MPEGH/ISO/HEVC
Duration : 2 h 18 min
Bit rate : 42.3 Mb/s
Width : 3 840 pixels
Height : 2 160 pixels
Display aspect ratio : 16:9
Frame rate mode : Constant
Frame rate : 23.976 (24000/1001) FPS
Color space : YUV
Chroma subsampling : 4:2:0 (Type 2)
Bit depth : 10 bits
Bits/(Pixel*Frame) : 0.213
Stream size : 41.0 GiB (87%)
Language : English
Default : Yes
Forced : No
Color range : Limited
Color primaries : BT.2020
Transfer characteristics : PQ
Matrix coefficients : BT.2020 non-constant
Mastering display color pri : R: x=0.680000 y=0.320000, G: x=0.265000 y=0.690000, B: x=0.150000 y=0.060000, White point: x=0.312700 y=0.329000
Mastering display luminance : min: 0.0050 cd/m2, max: 4000.0000 cd/m2
Maximum Content Light Level : 2105 cd/m2
Maximum Frame-Average Light : 1007 cd/m2
Audio #1
ID : 2
Format : AC-3
Format/Info : Audio Coding 3
Format settings, Endianness : Big
Codec ID : A_AC3
Duration : 2 h 18 min
Bit rate mode : Constant
Bit rate : 640 kb/s
Channel(s) : 6 channels
Channel positions : Front: L C R, Side: L R, LFE
Sampling rate : 48.0 kHz
Frame rate : 31.250 FPS (1536 SPF)
Bit depth : 16 bits
Compression mode : Lossy
Stream size : 635 MiB (1%)
Title : Dub [License]
Language : Russian
Service kind : Complete Main
Default : Yes
Forced : No
Audio #2
ID : 3
Format : TrueHD
Format profile : TrueHD+Atmos / TrueHD
Codec ID : A_TRUEHD
Duration : 2 h 18 min
Bit rate mode : Variable
Bit rate : 4 913 kb/s
Maximum bit rate : 8 085 kb/s
Channel(s) : Object Based / 8 channels
Channel positions : Object Based / Front: L C R, Side: L R, Back: L R, LFE
Sampling rate : / 48.0 kHz
Frame rate : 1 200.000 FPS (40 SPF)
Compression mode : Lossless
Stream size : 4.76 GiB (10%)
Title : Original
Language : English
Default : No
Forced : No
Audio #3
ID : 4
Format : AC-3
Format/Info : Audio Coding 3
Format settings, Endianness : Big
Codec ID : A_AC3
Duration : 2 h 18 min
Bit rate mode : Constant
Bit rate : 640 kb/s
Channel(s) : 6 channels
Channel positions : Front: L C R, Side: L R, LFE
Sampling rate : 48.0 kHz
Frame rate : 31.250 FPS (1536 SPF)
Bit depth : 16 bits
Compression mode : Lossy
Stream size : 635 MiB (1%)
Language : English
Service kind : Complete Main
Default : No
Forced : No
Text #1
ID : 5
Format : UTF-8
Codec ID : S_TEXT/UTF8
Codec ID/Info : UTF-8 Plain Text
Duration : 2 h 4 min
Bit rate : 7 b/s
Count of elements : 114
Stream size : 6.99 KiB (0%)
Title : Forced
Language : Russian
Default : Yes
Forced : No
Text #2
ID : 6
Format : UTF-8
Codec ID : S_TEXT/UTF8
Codec ID/Info : UTF-8 Plain Text
Duration : 2 h 7 min
Bit rate : 79 b/s
Count of elements : 1155
Stream size : 74.0 KiB (0%)
Title : Full
Language : Russian
Default : No
Forced : No
Text #3
ID : 7
Format : UTF-8
Codec ID : S_TEXT/UTF8
Codec ID/Info : UTF-8 Plain Text
Duration : 2 h 7 min
Bit rate : 53 b/s
Count of elements : 1337
Stream size : 49.9 KiB (0%)
Title : Full
Language : English
Default : No
Forced : No
Text #4
ID : 8
Format : UTF-8
Codec ID : S_TEXT/UTF8
Codec ID/Info : UTF-8 Plain Text
Duration : 2 h 12 min
Bit rate : 54 b/s
Count of elements : 1472
Stream size : 53.4 KiB (0%)
Title : SDH
Language : English
Default : No
Forced : No
Menu
00:00:00.000 : :00:00:00.000
00:09:30.945 : :00:09:30.945
00:17:33.010 : :00:17:33.010
00:25:40.998 : :00:25:40.998
00:32:22.274 : :00:32:22.274
00:43:36.864 : :00:43:36.864
00:51:52.609 : :00:51:52.609
01:01:11.918 : :01:01:11.918
01:10:47.577 : :01:10:47.577
01:17:13.963 : :01:17:13.963
01:26:21.510 : :01:26:21.510
01:37:39.562 : :01:37:39.562
01:47:41.455 : :01:47:41.455
01:58:02.367 : :01:58:02.367
02:03:03.334 : :02:03:03.334
02:07:28.140 : :02:07:28.140

Релиз от: Автор релиза:
Подпишись на меня, кликни по картинке > :



   Похожие торренты   Торрент   Размер 
В этой теме нет новых непрочитанных сообщений. Ангелы и Демоны / Angels & Demons (2009) HDRip от Scarabey | D | Театральная версия

131 | 33

2.17 ГБ

В этой теме нет новых непрочитанных сообщений. Ангелы и Демоны / Angels & Demons (2009) BDRip от HQ-ViDEO | Расширенная версия | D

594 | 32

2.91 ГБ

В этой теме нет новых непрочитанных сообщений. Ангелы и Демоны / Angels & Demons (2009) HDRip от Scarabey | D | Расширенная версия

594 | 25

2.18 ГБ

В этой теме нет новых непрочитанных сообщений. Ангелы и Демоны / Angels & Demons (2009) HDRip от Scarabey | D | Расширенная версия

1190 | 75

1.45 ГБ

В этой теме нет новых непрочитанных сообщений. Ангелы и Демоны / Angels & Demons (2009) BDRip от ExKinoRay | Theatrical Cut

47 | 0

1.46 ГБ

В этой теме нет новых непрочитанных сообщений. Ангелы и Демоны [Расширенная версия] / Angels & Demons [Extended Cut] (Рон Ховард) [2009, триллер, детектив, BDRip] DUB

43 | 0

2.18 ГБ

В этой теме нет новых непрочитанных сообщений. Ангелы и Демоны / Angels & Demons (2009) WEB-DLRip-AVC от Kaztorrents | D | Open Matte

11 | 0

2.16 ГБ




Вы не можете начинать темы
Вы не можете отвечать на сообщения
Вы не можете редактировать свои сообщения
Вы не можете удалять свои сообщения
Вы не можете добавлять вложения

Перейти:  
 Вход
ppkBB3cker v.2 © 2008-2014 @ PPK
[ Time : 0.020s | 18 Queries | GZIP : Off ]

cron