img image001 image001 image001 image001 image001 image001 image001 image001 image001 image001 image001 image001 image001 image001 image001 image001

Planets Sun Sun Sun
Статистика раздачи
Автор: Nickolas3434 | Размер: 54.71 ГБ | Добавлен: 15 дек 2017
Раздают: 7    Качают: 10
Скачать торрент
Скачать торрент
Описание торрента

СообщениеДобавлено: 15 дек 2017 

Информация о фильме
Название: Звездный путь
Оригинальное название: Star Trek
Год выхода: 2009
Жанр: Фантастика, боевик, приключения
Режиссер: Джей Джей Абрамс
В ролях: Крис Пайн, Закари Куинто, Леонард Нимой, Эрик Бана, Брюс Гринвуд, Карл Урбан, Зои Салдана, Саймон Пегг, Джон Чо, Антон Ельчин, Вайнона Райдер, Лиза Видал
О фильме:
Судьба галактики в руках непримиримых соперников, принадлежащих к совершенно разным мирам. Один из них — Джеймс Т. Кирк, хулиган из Айовы, прирожденный лидер, и искатель приключений. Второй, Спок, вырос на планете Вулкан и стал изгоем по причине своего получеловеческого происхождения. Кирк и Спок являются полными противоположностями; стремясь познать свою истинную сущность и понять, что они могут дать миру, молодые люди вскоре становятся непримиримыми соперниками. Один из них движим страстями, другой руководствуется холодной логикой.

Страна: США
Студия: Bad Robot, Paramount Pictures, Spyglass Entertainment
Продолжительность: 02:06:50
Перевод(ы):
#1: Дублированный
#2: Профессиональный многоголосый
#3: Авторский (Сербин)
#4: Авторский (Гаврилов)
Файл
Качество: BDRemux 2160p
Видео: MPEG-H HEVC HDR Video, 3840x2160, 53.0 Mbit/s, 23.976 fps
Звук:
Аудио #01: 48 kHz, AC3, 5.1, 640 Kbps | Дублированный | RUS |
Аудио #02: 48 kHz, AC3, 5.1, 448 Kbps | Проф. многоголосый | RUS |
Аудио #03: 48 kHz, DTS, 5.1, 1510 Kbps | Авторский | RUS |
Аудио #04: 48 kHz, AC3, 5.1, 448 Kbps | Авторский | RUS |
Аудио #05: 48 kHz, TrueHD, 7.1, 4995 Kbps | Оригинал | ENG |
Аудио #06: 48 kHz, AC3, 5.1, 640 Kbps | Оригинал | ENG |
Субтитры: Русские (full), украинские, английские

General
Unique ID : 190287150382536584445717154946808670724 (0x8F27F8DB3E3CB4D48B2ACC107B45EA04)
Complete name : G:VideoSSDStar.Trek.2009.BDREMUX.2160p.4K.UltraHD.HEVC.HDR.ExKinoRay.mkv
Format : Matroska
Format version : Version 4 / Version 2
File size : 54.7 GiB
Duration : 2 h 6 min
Overall bit rate mode : Variable
Overall bit rate : 61.7 Mb/s
Movie name : Star Trek 2009 from ExKinoRay
Encoded date : UTC 2017-12-14 01:02:20
Writing application : mkvmerge v18.0.0 ('Apricity') 64-bit
Writing library : libebml v1.3.5 + libmatroska v1.4.8
Video
ID : 1
Format : HEVC
Format/Info : High Efficiency Video Coding
Format profile : Main 10@L5.1@High
Codec ID : V_MPEGH/ISO/HEVC
Duration : 2 h 6 min
Bit rate : 53.0 Mb/s
Width : 3 840 pixels
Height : 2 160 pixels
Display aspect ratio : 16:9
Frame rate mode : Constant
Frame rate : 23.976 (24000/1001) FPS
Color space : YUV
Chroma subsampling : 4:2:0 (Type 2)
Bit depth : 10 bits
Bits/(Pixel*Frame) : 0.267
Stream size : 47.0 GiB (86%)
Writing library : ATEME Titan KFE 3.7.3 (4.7.3.1003)
Language : English
Default : Yes
Forced : No
Color range : Limited
Color primaries : BT.2020
Transfer characteristics : PQ
Matrix coefficients : BT.2020 non-constant
Mastering display color pri : R: x=0.680000 y=0.320000, G: x=0.265000 y=0.690000, B: x=0.150000 y=0.060000, White point: x=0.312700 y=0.329000
Mastering display luminance : min: 0.0050 cd/m2, max: 1000.0000 cd/m2
Audio #1
ID : 2
Format : AC-3
Format/Info : Audio Coding 3
Format settings, Endianness : Big
Codec ID : A_AC3
Duration : 2 h 6 min
Bit rate mode : Constant
Bit rate : 640 kb/s
Channel(s) : 6 channels
Channel positions : Front: L C R, Side: L R, LFE
Sampling rate : 48.0 kHz
Frame rate : 31.250 FPS (1536 SPF)
Bit depth : 16 bits
Compression mode : Lossy
Stream size : 581 MiB (1%)
Title : Dub
Language : Russian
Service kind : Complete Main
Default : Yes
Forced : No
Audio #2
ID : 3
Format : AC-3
Format/Info : Audio Coding 3
Format settings, Endianness : Big
Codec ID : A_AC3
Duration : 2 h 6 min
Bit rate mode : Constant
Bit rate : 448 kb/s
Channel(s) : 6 channels
Channel positions : Front: L C R, Side: L R, LFE
Sampling rate : 48.0 kHz
Frame rate : 31.250 FPS (1536 SPF)
Bit depth : 16 bits
Compression mode : Lossy
Stream size : 406 MiB (1%)
Title : MVO
Language : Russian
Service kind : Complete Main
Default : No
Forced : No
Audio #3
ID : 4
Format : DTS
Format/Info : Digital Theater Systems
Mode : 16
Format settings, Endianness : Big
Codec ID : A_DTS
Duration : 2 h 6 min
Bit rate mode : Constant
Bit rate : 1 509 kb/s
Channel(s) : 6 channels
Channel positions : Front: L C R, Side: L R, LFE
Sampling rate : 48.0 kHz
Frame rate : 93.750 FPS (512 SPF)
Bit depth : 24 bits
Compression mode : Lossy
Stream size : 1.34 GiB (2%)
Title : AVO [Serbin]
Language : Russian
Default : No
Forced : No
Audio #4
ID : 5
Format : AC-3
Format/Info : Audio Coding 3
Format settings, Endianness : Big
Codec ID : A_AC3
Duration : 2 h 6 min
Bit rate mode : Constant
Bit rate : 448 kb/s
Channel(s) : 6 channels
Channel positions : Front: L C R, Side: L R, LFE
Sampling rate : 48.0 kHz
Frame rate : 31.250 FPS (1536 SPF)
Bit depth : 16 bits
Compression mode : Lossy
Stream size : 406 MiB (1%)
Title : AVO [Gavrilov]
Language : Russian
Service kind : Complete Main
Default : No
Forced : No
Audio #5
ID : 6
Format : TrueHD
Format profile : TrueHD+Atmos / TrueHD
Codec ID : A_TRUEHD
Duration : 2 h 6 min
Bit rate mode : Variable
Bit rate : 4 995 kb/s
Maximum bit rate : 8 337 kb/s
Channel(s) : Object Based / 8 channels
Channel positions : Object Based / Front: L C R, Side: L R, Back: L R, LFE
Sampling rate : / 48.0 kHz
Frame rate : 1 200.000 FPS (40 SPF)
Compression mode : Lossless
Stream size : 4.42 GiB (8%)
Title : Original
Language : English
Default : No
Forced : No
Audio #6
ID : 7
Format : AC-3
Format/Info : Audio Coding 3
Format settings, Endianness : Big
Codec ID : A_AC3
Duration : 2 h 6 min
Bit rate mode : Constant
Bit rate : 640 kb/s
Channel(s) : 6 channels
Channel positions : Front: L C R, Side: L R, LFE
Sampling rate : 48.0 kHz
Frame rate : 31.250 FPS (1536 SPF)
Bit depth : 16 bits
Compression mode : Lossy
Stream size : 581 MiB (1%)
Language : English
Service kind : Complete Main
Default : No
Forced : No
Text #1
ID : 8
Format : UTF-8
Codec ID : S_TEXT/UTF8
Codec ID/Info : UTF-8 Plain Text
Duration : 2 h 5 min
Bit rate : 103 b/s
Count of elements : 1343
Stream size : 95.0 KiB (0%)
Title : Full
Language : Russian
Default : No
Forced : No
Text #2
ID : 9
Format : UTF-8
Codec ID : S_TEXT/UTF8
Codec ID/Info : UTF-8 Plain Text
Duration : 1 h 52 min
Bit rate : 0 b/s
Count of elements : 4
Stream size : 155 Bytes (0%)
Title : Full (Captions)
Language : Russian
Default : No
Forced : No
Text #3
ID : 10
Format : UTF-8
Codec ID : S_TEXT/UTF8
Codec ID/Info : UTF-8 Plain Text
Duration : 2 h 5 min
Bit rate : 104 b/s
Count of elements : 1336
Stream size : 96.4 KiB (0%)
Title : Full
Language : Ukrainian
Default : No
Forced : No
Text #4
ID : 11
Format : UTF-8
Codec ID : S_TEXT/UTF8
Codec ID/Info : UTF-8 Plain Text
Duration : 1 h 57 min
Bit rate : 64 b/s
Count of elements : 1317
Stream size : 55.4 KiB (0%)
Title : Full
Language : English
Default : No
Forced : No
Text #5
ID : 12
Format : UTF-8
Codec ID : S_TEXT/UTF8
Codec ID/Info : UTF-8 Plain Text
Duration : 1 h 57 min
Bit rate : 70 b/s
Count of elements : 1596
Stream size : 60.8 KiB (0%)
Title : SDH
Language : English
Default : No
Forced : No
Menu
00:00:00.000 : en:00:00:00.000
00:11:57.216 : en:00:11:57.216
00:19:45.101 : en:00:19:45.101
00:28:09.104 : en:00:28:09.104
00:35:33.506 : en:00:35:33.506
00:44:10.398 : en:00:44:10.398
00:52:21.722 : en:00:52:21.722
01:01:33.607 : en:01:01:33.607
01:11:40.087 : en:01:11:40.087
01:20:39.501 : en:01:20:39.501
01:27:35.292 : en:01:27:35.292
01:36:29.575 : en:01:36:29.575
01:44:34.268 : en:01:44:34.268
01:53:13.412 : en:01:53:13.412
01:58:20.552 : en:01:58:20.552

Релиз от: Автор релиза:
Подпишись на меня, кликни по картинке > :



   Похожие торренты   Торрент   Размер 
В этой теме нет новых непрочитанных сообщений. Звездный путь / Star Trek (2009) BDRip 720p от Leonardo and Scarabey | Лицензия

190 | 38

6.16 ГБ

В этой теме нет новых непрочитанных сообщений. Стартрек: Возмездие / Star Trek Into Darkness (2013) UHD BDRemux 2160p от ExKinoRay | 4K | HDR | Лицензия

10 | 6

50.26 ГБ

В этой теме нет новых непрочитанных сообщений. Звездный путь / Star Trek (2009) BDRip 1080p

458 | 49

11.5 ГБ

В этой теме нет новых непрочитанных сообщений. Звездный путь / Star Trek (2009) BDRip 720p

113 | 24

12.31 ГБ

В этой теме нет новых непрочитанных сообщений. Звездный путь / Star Trek (2009) BDRip 720p от NNNB | D

457 | 45

4.36 ГБ

В этой теме нет новых непрочитанных сообщений. Звездный путь: Дилогия / Star Trek: Dilogy (2009-2013) BDRip

550 | 108

5.82 ГБ

В этой теме нет новых непрочитанных сообщений. Звездный путь: Энтерпрайз [S01] / Star Trek: Enterprise (2001-2002) DVDRip

82 | 7

9.46 ГБ




Вы не можете начинать темы
Вы не можете отвечать на сообщения
Вы не можете редактировать свои сообщения
Вы не можете удалять свои сообщения
Вы не можете добавлять вложения

Перейти:  
 Вход
ppkBB3cker v.2 © 2008-2014 @ PPK
[ Time : 0.020s | 16 Queries | GZIP : Off ]

cron