img image001 image001 image001 image001 image001 image001 image001 image001 image001 image001 image001 image001 image001 image001 image001 image001

Planets Sun Sun Sun
Статистика раздачи
Автор: Nickolas3434 | Размер: 1.38 ГБ | Добавлен: 09 дек 2017
Раздают: 81    Качают: 7
Скачать торрент
Скачать торрент
Описание торрента

СообщениеДобавлено: 09 дек 2017 

Информация о фильме
Название: Друзья
Оригинальное название: Baadshaho
Год выхода: 2017
Жанр: Боевик, триллер, приключения
Режиссер: Милан Лутрия
В ролях: Аджай Девгн, Илеана Д'Круз, Эмран Хашми, Эша Гупта, Видьют Джамвал и другие....
О фильме:
Махарани Гитанджали (Илеана Д'Круз)- принцесса королевской семьи Раджастана. Санджив, влиятельное лицо в правительстве Конгресса, был унижен Гитанджали. Чтобы отомстить, Санджив приказывает полковнику Рудре Пратапу Сингху конфисковать все золото Гитанджали и посадить ее за решетку. Принцесса просит своего верного телохранителя Бхавани Сингха (Аджай Девгн) вернуть ей золото, и тот, ведомый долгом, обещает сделать это любой ценой.

Страна: Индия
Студия: T-Series, Vertex Motion Pictures
Продолжительность: 01:39:43
Перевод: Любительский двухголосый - den904, DeadSno
Перевод: МАРИК
Без Рекламы

General
Unique ID : 208265964413026687218720359106025942998 (0x9CAE90D36ADA7A5B97DC389EEDECEFD6)
Complete name : D:DownBaadshaho.2017.720p.WEBRip.H264.AC3.mkv
Format : Matroska
Format version : Version 4 / Version 2
File size : 1.38 GiB
Duration : 2 h 14 min
Overall bit rate : 1 468 kb/s
Movie name : BAADSHAHO (2017) Hindi 720p WEBRip-H264-AC3-Zi$t
Encoded date : UTC 2017-12-03 16:29:15
Writing application : mkvmerge v6.2.0 ('Promised Land') built on Apr 28 2013 12:22:01
Writing library : libebml v1.3.0 + libmatroska v1.4.0
Video
ID : 1
Format : AVC
Format/Info : Advanced Video Codec
Format profile : High@L3.1
Format settings : CABAC / 3 Ref Frames
Format settings, CABAC : Yes
Format settings, RefFrames : 3 frames
Codec ID : V_MPEG4/ISO/AVC
Duration : 2 h 14 min
Bit rate : 1 246 kb/s
Width : 1 280 pixels
Height : 536 pixels
Display aspect ratio : 2.40:1
Frame rate mode : Constant
Frame rate : 24.000 FPS
Color space : YUV
Chroma subsampling : 4:2:0
Bit depth : 8 bits
Scan type : Progressive
Bits/(Pixel*Frame) : 0.076
Stream size : 1.17 GiB (85%)
Writing library : x264 core 152 r2851bm ba24899
Encoding settings : cabac=1 / ref=3 / deblock=1:0:0 / analyse=0x3:0x113 / me=hex / subme=7 / psy=1 / psy_rd=1.00:0.00 / mixed_ref=1 / me_range=16 / chroma_me=1 / trellis=1 / 8x8dct=1 / cqm=0 / deadzone=21,11 / fast_pskip=1 / chroma_qp_offset=-2 / threads=4 / lookahead_threads=4 / sliced_threads=1 / slices=4 / nr=0 / decimate=1 / interlaced=0 / bluray_compat=0 / constrained_intra=0 / bframes=0 / weightp=2 / keyint=250 / keyint_min=24 / scenecut=40 / intra_refresh=0 / rc=crf / mbtree=0 / crf=26.0 / qcomp=0.60 / qpmin=0 / qpmax=69 / qpstep=4 / ip_ratio=1.40 / aq=1:1.00
Default : Yes
Forced : No
Audio
ID : 2
Format : AC-3
Format/Info : Audio Coding 3
Format settings, Endianness : Big
Codec ID : A_AC3
Duration : 2 h 14 min
Bit rate mode : Constant
Bit rate : 192 kb/s
Channel(s) : 2 channels
Channel positions : Front: L R
Sampling rate : 48.0 kHz
Frame rate : 31.250 FPS (1536 SPF)
Bit depth : 16 bits
Compression mode : Lossy
Stream size : 185 MiB (13%)
Service kind : Complete Main
Default : Yes
Forced : No


Файл
Кодек: h264
Качество: WEBRip 720p
Видео: 1280x536 (2.40:1), 24 fps, ~1246 kbps
Звук: AC3, 2 ch, 192 Кбит/с

Релиз от:



   Похожие торренты   Торрент   Размер 
В этой теме нет новых непрочитанных сообщений. Друзья / Baadshaho (2017) WEBRip | L2

7 | 1

1.32 ГБ

В этой теме нет новых непрочитанных сообщений. Друзья / Baadshaho (2017) WEBRip от ExKinoRay | L2

5 | 0

1.37 ГБ

В этой теме нет новых непрочитанных сообщений. Друзья по жизни / Друзья на всю жизнь / Закадычные друзья / Amici per la pelle (Франко Росси) [1955, драма, комедия, DVDRip-AVC] VO

0 | 1

1.75 ГБ

В этой теме нет новых непрочитанных сообщений. Лунтик и его друзья [01-08x1-459, 461 из 479] (2006-2016) WEBRip 720p от ExKinoRay

37 | 28

23.03 ГБ

В этой теме нет новых непрочитанных сообщений. СуперКрылья. Джетт и его друзья / Super Wings. Jett and his friends [01-40 из 52] (2015) WEBRip 720p от ExKinoRay | D

15 | 13

5.24 ГБ

В этой теме нет новых непрочитанных сообщений. Лучшие друзья / Друзья по несчастью / Best Friends / Xin hua lu fang (2014) WEB-DLRip

25 | 2

1.46 ГБ

В этой теме нет новых непрочитанных сообщений. Концерт номер один. Денис Мацуев, Синяя Птица и друзья в Кремлёвском дворце (2017) HDTV 720p от Files-х

3 | 0

1.36 ГБ




Вы не можете начинать темы
Вы не можете отвечать на сообщения
Вы не можете редактировать свои сообщения
Вы не можете удалять свои сообщения
Вы не можете добавлять вложения

Перейти:  
 Вход
ppkBB3cker v.2 © 2008-2014 @ PPK
[ Time : 0.022s | 16 Queries | GZIP : Off ]

cron