img image001 image001 image001 image001 image001 image001 image001 image001 image001 image001 image001 image001 image001 image001 image001 image001

Planets Sun Sun Sun
Статистика раздачи
Автор: Nickolas3434 | Размер: 14.99 ГБ | Добавлен: 10 ноя 2017
Раздают: 2    Качают: 0
Скачать торрент
Скачать торрент
Описание торрента

СообщениеДобавлено: 10 ноя 2017 

Информация о фильме
✧ Название: Детектив Буллитт
✧ Оригинальное название: Bullitt
✧ Год выхода: 1968
Жанр: детектив, криминал
✧ Выпущено: США, Solar Productions, Warner Brothers/Seven Arts
✧ Продолжительность: 01:53:45
✧ Перевод: Профессиональный многоголосый, авторский одноголосый
✧ Режиссер: Питер Йетс
✧ В ролях: Стив МакКуин, Роберт Вон, Жаклин Биссет, Дон Гордон, Роберт Дювалл, Саймон Оукленд, Норман Фелл, Георг Стэнфорд Браун, Джастин Тарр, Карл Райндел
✧ О фильме:
Фильм снят по мотивам романа Роберта Л. Фиша «Немой свидетель». Новое задание детектива Фрэнка Буллита (Стив МакКуин) на первый взгляд выглядит вполне обычно: охранять известного свидетеля во время слушания громкого дела. Однако до наступления следующего дня свидетеля убивают. Хладнокровный и решительный Буллитт не успокоится, пока убийцы и тот, кто за ними стоит, не будут наказаны. Этот триллер знаменит одной из самых лучших сцен погони в истории кино, в которой МакКуин, будучи опытным гонщиком, исполняет все трюки сам.

Файл
✧ Качество: BDRemux 1080p
✧ Контейнер: MKV
✧ Видео: 1920x1080p, 23.976 fps, 16:9, VC-1, 17129 kbps
✧ Аудио 1: Russian: 48 kHz, AC3, 2/0 (L,R) ch, 192.00 kbps avg - MVO, DVD Classic
✧ Аудио 2: Russian: 48 kHz, AC3, 2/0 (L,R) ch, 192.00 kbps avg - MVO, СТС/ТНТ
✧ Аудио 3: Russian: 48 kHz, AC3, 2/0 (L,R) ch, 192.00 kbps avg - MVO, DVD Магия
✧ Аудио 4: Russian: 48 kHz, AC3, 2/0 (L,R) ch, 192.00 kbps avg - MVO, ТРК Россия
✧ Аудио 5: Russian: 48 kHz, AC3, 2/0 (L,R) ch, 192.00 kbps avg - AVO, А. Михалёв
✧ Аудио 6: Russian: 48 kHz, AC3, 2/0 (L,R) ch, 192.00 kbps avg - AVO, А. Гаврилов
✧ Аудио 7: Russian: 48 kHz, AC3, 2/0 (L,R) ch, 192.00 kbps avg - AVO, Л. Володарский
✧ Аудио 8: English: 48 kHz, AC3, 2/0 (L,R) ch, 192.00 kbps avg - Оригинал
✧ Аудио 9: English: 48 kHz, AC3, 2/0 (L,R) ch, 192.00 kbps avg - Комментарии
✧ Субтитры: Русские, английские

Общее
Уникальный идентификатор : 248743093143484475314824593708518923263 (0xBB222D59FE8A4E79B9A5E50487D2DBFF)
Полное имя : Bullitt.1968.BDRemux.1080p.mkv
Формат : Matroska
Версия формата : Version 4 / Version 2
Размер файла : 15,0 Гбайт
Продолжительность : 1 ч. 53 м.
Общий поток : 18,9 Мбит/сек
Дата кодирования : UTC 2017-01-11 10:34:00
Программа кодирования : mkvmerge v9.5.0 ('Quiet Fire') 64bit
Библиотека кодирования : libebml v1.3.4 + libmatroska v1.4.5
Видео
Идентификатор : 1
Формат : VC-1
Профиль формата : Advanced@L3
Идентификатор кодека : V_MS/VFW/FOURCC / WVC1
Идентификатор кодека/Подсказка : Microsoft
Продолжительность : 1 ч. 53 м.
Битрейт : 17,1 Мбит/сек
Ширина : 1920 пикселей
Высота : 1080 пикселей
Соотношение сторон : 16:9
Режим частоты кадров : Постоянный
Частота кадров : 23,976 (24000/1001) кадра/сек
Цветовое пространство : YUV
Субдискретизация насыщенности : 4:2:0
Битовая глубина : 8 бит
Тип развёртки : Прогрессивная
Метод сжатия : С потерями
Бит/(Пиксели*Кадры) : 0.345
Размер потока : 13,6 Гбайт (91%)
Default : Да
Forced : Нет
Аудио #1
Идентификатор : 2
Формат : AC-3
Формат/Информация : Audio Coding 3
Параметр Endianness формата : Big
Идентификатор кодека : A_AC3
Продолжительность : 1 ч. 53 м.
Вид битрейта : Постоянный
Битрейт : 192 Кбит/сек
Каналы : 2 канала
Расположение каналов : Front: L R
Частота : 48,0 КГц
Частота кадров : 31,250 кадров/сек (1536 SPF)
Битовая глубина : 16 бит
Метод сжатия : С потерями
Размер потока : 156 Мбайт (1%)
Заголовок : DVD Classic
Язык : Russian
Default : Да
Forced : Нет
Аудио #2
Идентификатор : 3
Формат : AC-3
Формат/Информация : Audio Coding 3
Параметр Endianness формата : Big
Идентификатор кодека : A_AC3
Продолжительность : 1 ч. 53 м.
Вид битрейта : Постоянный
Битрейт : 192 Кбит/сек
Каналы : 2 канала
Расположение каналов : Front: L R
Частота : 48,0 КГц
Частота кадров : 31,250 кадров/сек (1536 SPF)
Битовая глубина : 16 бит
Метод сжатия : С потерями
Размер потока : 156 Мбайт (1%)
Заголовок : СТС/ТНТ
Язык : Russian
Default : Нет
Forced : Нет
Аудио #3
Идентификатор : 4
Формат : AC-3
Формат/Информация : Audio Coding 3
Параметр Endianness формата : Big
Идентификатор кодека : A_AC3
Продолжительность : 1 ч. 53 м.
Вид битрейта : Постоянный
Битрейт : 192 Кбит/сек
Каналы : 2 канала
Расположение каналов : Front: L R
Частота : 48,0 КГц
Частота кадров : 31,250 кадров/сек (1536 SPF)
Битовая глубина : 16 бит
Метод сжатия : С потерями
Размер потока : 156 Мбайт (1%)
Заголовок : DVD Magic
Язык : Russian
Default : Нет
Forced : Нет
Аудио #4
Идентификатор : 5
Формат : AC-3
Формат/Информация : Audio Coding 3
Параметр Endianness формата : Big
Идентификатор кодека : A_AC3
Продолжительность : 1 ч. 53 м.
Вид битрейта : Постоянный
Битрейт : 192 Кбит/сек
Каналы : 2 канала
Расположение каналов : Front: L R
Частота : 48,0 КГц
Частота кадров : 31,250 кадров/сек (1536 SPF)
Битовая глубина : 16 бит
Метод сжатия : С потерями
Размер потока : 156 Мбайт (1%)
Заголовок : ТРК Россия
Язык : Russian
Default : Нет
Forced : Нет
Аудио #5
Идентификатор : 6
Формат : AC-3
Формат/Информация : Audio Coding 3
Параметр Endianness формата : Big
Идентификатор кодека : A_AC3
Продолжительность : 1 ч. 53 м.
Вид битрейта : Постоянный
Битрейт : 192 Кбит/сек
Каналы : 2 канала
Расположение каналов : Front: L R
Частота : 48,0 КГц
Частота кадров : 31,250 кадров/сек (1536 SPF)
Битовая глубина : 16 бит
Метод сжатия : С потерями
Размер потока : 156 Мбайт (1%)
Заголовок : Алексей Михалёв
Язык : Russian
Default : Нет
Forced : Нет
Аудио #6
Идентификатор : 7
Формат : AC-3
Формат/Информация : Audio Coding 3
Параметр Endianness формата : Big
Идентификатор кодека : A_AC3
Продолжительность : 1 ч. 53 м.
Вид битрейта : Постоянный
Битрейт : 192 Кбит/сек
Каналы : 2 канала
Расположение каналов : Front: L R
Частота : 48,0 КГц
Частота кадров : 31,250 кадров/сек (1536 SPF)
Битовая глубина : 16 бит
Метод сжатия : С потерями
Размер потока : 156 Мбайт (1%)
Заголовок : Андрей Гаврилов
Язык : Russian
Default : Нет
Forced : Нет
Аудио #7
Идентификатор : 8
Формат : AC-3
Формат/Информация : Audio Coding 3
Параметр Endianness формата : Big
Идентификатор кодека : A_AC3
Продолжительность : 1 ч. 53 м.
Вид битрейта : Постоянный
Битрейт : 192 Кбит/сек
Каналы : 2 канала
Расположение каналов : Front: L R
Частота : 48,0 КГц
Частота кадров : 31,250 кадров/сек (1536 SPF)
Битовая глубина : 16 бит
Метод сжатия : С потерями
Размер потока : 156 Мбайт (1%)
Заголовок : Леонид Володарский
Язык : Russian
Default : Нет
Forced : Нет
Аудио #8
Идентификатор : 9
Формат : AC-3
Формат/Информация : Audio Coding 3
Режим : Dolby Digital
Параметр Endianness формата : Big
Идентификатор кодека : A_AC3
Продолжительность : 1 ч. 53 м.
Вид битрейта : Постоянный
Битрейт : 192 Кбит/сек
Каналы : 2 канала
Расположение каналов : Front: L R
Частота : 48,0 КГц
Частота кадров : 31,250 кадров/сек (1536 SPF)
Битовая глубина : 16 бит
Метод сжатия : С потерями
Размер потока : 156 Мбайт (1%)
Заголовок : Original
Язык : English
Default : Нет
Forced : Нет
Аудио #9
Идентификатор : 10
Формат : AC-3
Формат/Информация : Audio Coding 3
Режим : Dolby Digital
Параметр Endianness формата : Big
Идентификатор кодека : A_AC3
Продолжительность : 1 ч. 53 м.
Вид битрейта : Постоянный
Битрейт : 192 Кбит/сек
Каналы : 2 канала
Расположение каналов : Front: L R
Частота : 48,0 КГц
Частота кадров : 31,250 кадров/сек (1536 SPF)
Битовая глубина : 16 бит
Метод сжатия : С потерями
Размер потока : 156 Мбайт (1%)
Заголовок : Commentary
Язык : English
Default : Нет
Forced : Нет
Текст #1
Идентификатор : 11
Формат : UTF-8
Идентификатор кодека : S_TEXT/UTF8
Идентификатор кодека/Информация : UTF-8 Plain Text
Продолжительность : 1 ч. 50 м.
Битрейт : 56 бит/сек
ElementCount : 771
Размер потока : 46,1 Кбайт (0%)
Заголовок : русские
Язык : Russian
Default : Нет
Forced : Нет
Текст #2
Идентификатор : 12
Формат : UTF-8
Идентификатор кодека : S_TEXT/UTF8
Идентификатор кодека/Информация : UTF-8 Plain Text
Продолжительность : 1 ч. 50 м.
Битрейт : 31 бит/сек
ElementCount : 690
Размер потока : 25,7 Кбайт (0%)
Заголовок : английские
Язык : English
Default : Нет
Forced : Нет



   Похожие торренты   Торрент   Размер 
В этой теме нет новых непрочитанных сообщений. Детектив Буллитт / Bullitt (1968) BDRip | P

8 | 1

1.46 ГБ

В этой теме нет новых непрочитанных сообщений. Детектив Буллитт / Bullitt (1968) BDRip от HQ-ViDEO | P

15 | 0

2.18 ГБ

В этой теме нет новых непрочитанных сообщений. Детектив Буллитт / Bullitt (1968) BDRip-AVC от R.G.Resident | P, A

8 | 0

3.55 ГБ

В этой теме нет новых непрочитанных сообщений. Бандолеро! / Bandolero! (1968) BDRemux 1080p | P

2 | 0

20.22 ГБ

В этой теме нет новых непрочитанных сообщений. Вечеринка / The party (1968) BDRemux 1080p

20 | 11

18.38 ГБ

В этой теме нет новых непрочитанных сообщений. Блеф Кугана / Coogan's Bluff (1968) BDRemux 1080p | D, P

24 | 18

24.54 ГБ

В этой теме нет новых непрочитанных сообщений. Девушка на мотоцикле / The Girl on a Motorcycle (1968) BDRemux 1080p | P2

3 | 7

15.87 ГБ




Вы не можете начинать темы
Вы не можете отвечать на сообщения
Вы не можете редактировать свои сообщения
Вы не можете удалять свои сообщения
Вы не можете добавлять вложения

Перейти:  
 Вход
ppkBB3cker v.2 © 2008-2014 @ PPK
[ Time : 0.035s | 16 Queries | GZIP : Off ]

cron