img image001 image001 image001 image001 image001 image001 image001 image001 image001 image001 image001 image001 image001 image001 image001 image001

Planets Sun Sun Sun
Статистика раздачи
Автор: Снежана | Размер: 1.29 ГБ | Добавлен: 22 июл 2013
Раздают: 1    Качают: 1
Скачать торрент
Скачать торрент
Описание торрента

СообщениеДобавлено: 22 июл 2013 

#77


Название: Прикоснуться к надежде
Оригинальное название: A Touch of Hope
Год выпуска: 1999
Жанр: Драма
Выпущено: США, NBC Studios, Patchett Kaufman Entertainment
Режиссер: Крэйг Р. Бэксли
В ролях: Энтони Майкл Холл, Абрахам Бенруби, Си Си Эйч Паундер, Фэй Мастерсон, Шон О’Брайан, Роберт Клохесси, Питер МакНейл, Нэнси Битти, Алан Розенберг, Брук Джонсон, Стефани Миллс, Мэрион Дэй, Стефани Мур, Александра Стэпли, Ричард Фицпатрик, Линн Гриффин, Тим Прогош, Эндрю Краулис, Расселл Юэнь, Холли Седжвик, Шэнли Тринидад, Стив Уэбб
О фильме: Рассказ о Дине Крафте, который лечил наложением рук. Он открыл у себя этот талант еще в детстве, но пользовался им только в крайних случаях, так как официальная медицина не признавала такой метод лечения.
Качество: SATRip
Видео: DivX, 1995 Кбит/с, 704x544
Аудио: AC3, 2 ch, 192 Кбит/с
Размер: 1.29 ГБ
Продолжительность: 01:24:19
Перевод: Профессиональный двухголосый



Общее
Полное имя : Prikosnutsya.k.nadezhde.1999.DivX.SATRip.RG.MixTorrent.avi
Формат : AVI
Формат/Информация : Audio Video Interleave
Размер файла : 1,29 Гбайт
Продолжительность : 1 ч. 24 м.
Общий поток : 2196 Кбит/сек
Программа кодирования : VirtualDubMod 1.5.10.3 | www.virtualdub-fr.org || (build 2550/release)
Библиотека кодирования : VirtualDubMod build 2550/release

Видео
Идентификатор : 0
Формат : MPEG-4 Visual
Профиль формата : Advanced Simple@L5
Параметр BVOP формата : 1
Параметр QPel формата : Нет
Параметр GMC формата : Без точки перехода
Параметр матрицы формата : Default (H.263)
Идентификатор кодека : DIVX
Идентификатор кодека/Информация : Project Mayo
Идентификатор кодека/Подсказка : DivX 4
Продолжительность : 1 ч. 24 м.
Битрейт : 1995 Кбит/сек
Ширина : 704 пикселя
Высота : 544 пикселя
Соотношение сторон : 1,294
Частота кадров : 25,000 кадров/сек
Цветовое пространство : YUV
Субдискретизация насыщенности : 4:2:0
Битовая глубина : 8 бит
Тип развёртки : Прогрессивная
Метод сжатия : С потерями
Бит/(Пиксели*Кадры) : 0.208
Размер потока : 1,17 Гбайт (91%)
Библиотека кодирования : XviD 1.2.1 (UTC 2008-12-04)

Аудио
Идентификатор : 1
Формат : AC-3
Формат/Информация : Audio Coding 3
Расширение режима : CM (complete main)
Параметр Endianness формата : Big
Идентификатор кодека : 2000
Продолжительность : 1 ч. 24 м.
Вид битрейта : Постоянный
Битрейт : 192 Кбит/сек
Каналы : 2 канала
Расположение каналов : Front: L R
Частота : 48,0 КГц
Битовая глубина : 16 бит
Метод сжатия : С потерями
Размер потока : 116 Мбайт (9%)
Выравнивание : Разделение по промежуткам
Продолжительность промежутка : 40 мс. (1,00 видеокадр)
Время предзагрузки промежутка : 500 мс.





Релиз от: Nefchi1
При копировании файлов и оформления раздачи на других трекерах - ОБЯЗАТЕЛЬНО размещать баннер и указывать релиз-группу



   Похожие торренты   Торрент   Размер 
В этой теме нет новых непрочитанных сообщений. В надежде на спасение / Saving Hope [S02] (2013) HDTVRip | Sub

16 | 14

5.67 ГБ

В этой теме нет новых непрочитанных сообщений. В надежде на спасение / Saving Hope [02x01-03] (2013) HDTVRip | Bona Media Group

46 | 20

1.33 ГБ

В этой теме нет новых непрочитанных сообщений. Touch - Touch (1969/2012) MP3

19 | 5

198.14 МБ

В этой теме нет новых непрочитанных сообщений. Дотянуться до неба / Touch The Sry (2011) SATRip от Generalfilm

8 | 5

661.85 МБ

В этой теме нет новых непрочитанных сообщений. VA - Morning Touch Vol 2 (2014) MP3

19 | 3

256.17 МБ

В этой теме нет новых непрочитанных сообщений. Madness - Can't Touch Us Now (2016) MP3

4 | 0

135.79 МБ

В этой теме нет новых непрочитанных сообщений. The Strumbellas - Hope (2016) MP3

0 | 0

74.98 МБ




Вы не можете начинать темы
Вы не можете отвечать на сообщения
Вы не можете редактировать свои сообщения
Вы не можете удалять свои сообщения
Вы не можете добавлять вложения

Перейти:  
 Вход
ppkBB3cker v.2 © 2008-2014 @ PPK
[ Time : 0.031s | 17 Queries | GZIP : Off ]

cron