img image001 image001 image001 image001 image001 image001 image001 image001 image001 image001 image001 image001 image001 image001 image001 image001

Planets Sun Sun Sun
Статистика раздачи
Автор: Nickolas3434 | Размер: 6.07 ГБ | Добавлен: 09 июл 2017
Раздают: 28    Качают: 3
Скачать торрент
Скачать торрент
Описание торрента

СообщениеДобавлено: 09 июл 2017 

Информация о фильме
Название: Аполлон 13
Оригинальное название: Apollo 13
Год выхода: 1995
Жанр: драма, история
Режиссер: Рон Ховард / Ron Howard
В ролях: Том Хэнкс, Билл Пэкстон, Кевин Бэйкон, Гари Синиз, Эд Харрис, Кэтлин Куинлэн, Мэри Кейт Шеллхардт, Эмили Энн Ллойд, Мико Хьюз, Макс Эллиотт Слэйд, Трэйси Рейнер, Дэвид Эндрюс, Мишель Литтл, Крис Эллис, Джо Спано, Ксандер Беркли, Марк МакКлюр, Бен Марли, Клинт Ховард, Лорен Дин
О фильме:
Фильм о неудачной лунной миссии «Аполлон-13» — одном из самых драматических моментов освоения космоса. В 1970 «Аполлон-13» должен был стать третьим космическим кораблём, который доставил бы астронавтов на Луну. Однако уже на подлёте к цели на корабле произошла серьёзная авария, которая не только поставила крест на высадке, но и создала угрозу жизни экипажа...

Страна: США
Продолжительность: 02:14:05
Перевод:
Перевод 1: Профессиональный (дублированный)
Перевод 2: Профессиональный (многоголосый закадровый) ОРТ
Перевод 3: Профессиональный (многоголосый закадровый) (СТС)
Перевод 4: Профессиональный (двухголосый закадровый) (Премьер Видео)
Перевод 5: Авторский (одноголосый закадровый) (Андрей Гаврилов)
Перевод 6: Авторский (одноголосый закадровый) (Александр Кашкин (Первомайский))
Файл
Кодек: MPEG-2
Качество: DVDRemux
Видео: 4363 Кбит/с, 720x480 (4:3), 23.976 кадр/с
Звук:
Аудио 1: 48.0 KHz, AC3, 3/2 (L,C,R,l,r) + LFE ch, ~448.00 kbps avg (Дубляж)
Аудио 2: 48.0 KHz, AC3, 2/0 (L, R) ~ 192.00 kbps avg (ОРТ)
Аудио 3: 48.0 KHz, AC3, 2/0 (L, R) ~ 192.00 kbps avg (СТС)
Аудио 4: 48.0 KHz, AC3, 2/0 (L, R) ~ 192.00 kbps avg (Премьер Видео)
Аудио 5: 48.0 KHz, AC3, 3/2 (L,C,R,l,r) + LFE ch, ~448.00 kbps avg (А. Гаврилов)
Аудио 6: 48.0 KHz, AC3, 2/0 (L, R) (mono) ~ 192.00 kbps avg (А. Кашкин)
Аудио 7: 48.0 KHz, AC3, 3/2 (L,C,R,l,r) + LFE ch, ~448.00 kbps avg (English)
Субтитры: русские/английские
Семпл





Общее
Уникальный идентификатор : 171630982091000549587828908304978251195 (0x811EECBE57278EA8BA44F78165058DBB)
Полное имя : F:DownloadsApollo 13 (1995) Fullscreen DVDRemux.mkv
Формат : Matroska
Версия формата : Version 4 / Version 2
Размер файла : 6,07 Гбайт
Продолжительность : 2 ч. 14 м.
Режим общего битрейта : Переменный
Общий поток : 6482 Кбит/сек
Дата кодирования : UTC 2017-07-09 07:25:25
Программа кодирования : mkvmerge v13.0.0 ('The Juggler') 64bit
Библиотека кодирования : libebml v1.3.4 + libmatroska v1.4.5
Видео
Идентификатор : 1
Формат : MPEG Video
Версия формата : Version 2
Профиль формата : Main@Main
Параметр BVOP формата : Да
Параметр матрицы формата : Выборочная
Параметр GOP формата : M=3, N=12
Идентификатор кодека : V_MPEG2
Идентификатор кодека/Информация : MPEG 1 or 2 Video
Продолжительность : 2 ч. 14 м.
Вид битрейта : Переменный
Битрейт : 4363 Кбит/сек
Максимальный битрейт : 9800 Кбит/сек
Ширина : 720 пикселей
Высота : 480 пикселей
Соотношение сторон : 4:3
Режим частоты кадров : Переменный
Частота кадров : 23,976 (23976/1000) кадра/сек
Частота кадров в оригинале : 29,970 (30000/1001) кадров/сек
Цветовое пространство : YUV
Субдискретизация насыщенности : 4:2:0
Битовая глубина : 8 бит
Метод сжатия : С потерями
Бит/(Пиксели*Кадры) : 0.527
Временной код первого кадра : 00:59:59;00
Оригинал временного кода : Group of pictures header
GOP, открыто/закрыто : Открыто
GOP, открыто/закрыто на первом кадре : Закрыто
Размер потока : 4,09 Гбайт (67%)
Default : Да
Forced : Нет
Аудио #1
Идентификатор : 2
Формат : AC-3
Формат/Информация : Audio Coding 3
Расширение режима : CM (complete main)
Параметр Endianness формата : Big
Идентификатор кодека : A_AC3
Продолжительность : 2 ч. 14 м.
Вид битрейта : Постоянный
Битрейт : 448 Кбит/сек
Каналы : 6 каналов
Расположение каналов : Front: L C R, Side: L R, LFE
Частота : 48,0 КГц
Частота кадров : 31,250 кадров/сек (1536 spf)
Метод сжатия : С потерями
Размер потока : 430 Мбайт (7%)
Заголовок : DUB
Язык : Russian
Default : Да
Forced : Нет
Аудио #2
Идентификатор : 3
Формат : AC-3
Формат/Информация : Audio Coding 3
Расширение режима : CM (complete main)
Параметр Endianness формата : Big
Идентификатор кодека : A_AC3
Продолжительность : 2 ч. 14 м.
Вид битрейта : Постоянный
Битрейт : 192 Кбит/сек
Каналы : 2 канала
Расположение каналов : Front: L R
Частота : 48,0 КГц
Частота кадров : 31,250 кадров/сек (1536 spf)
Метод сжатия : С потерями
Размер потока : 184 Мбайт (3%)
Заголовок : MVO (ОРТ)
Язык : Russian
Default : Нет
Forced : Нет
Аудио #3
Идентификатор : 4
Формат : AC-3
Формат/Информация : Audio Coding 3
Расширение режима : CM (complete main)
Параметр Endianness формата : Big
Идентификатор кодека : A_AC3
Продолжительность : 2 ч. 14 м.
Вид битрейта : Постоянный
Битрейт : 192 Кбит/сек
Каналы : 2 канала
Расположение каналов : Front: L R
Частота : 48,0 КГц
Частота кадров : 31,250 кадров/сек (1536 spf)
Метод сжатия : С потерями
Размер потока : 184 Мбайт (3%)
Заголовок : MVO (СТС)
Язык : Russian
Default : Нет
Forced : Нет
Аудио #4
Идентификатор : 5
Формат : AC-3
Формат/Информация : Audio Coding 3
Расширение режима : CM (complete main)
Параметр Endianness формата : Big
Идентификатор кодека : A_AC3
Продолжительность : 2 ч. 14 м.
Вид битрейта : Постоянный
Битрейт : 192 Кбит/сек
Каналы : 2 канала
Расположение каналов : Front: L R
Частота : 48,0 КГц
Частота кадров : 31,250 кадров/сек (1536 spf)
Метод сжатия : С потерями
Размер потока : 184 Мбайт (3%)
Заголовок : DVO (Премьер-Видео)
Язык : Russian
Default : Нет
Forced : Нет
Аудио #5
Идентификатор : 6
Формат : AC-3
Формат/Информация : Audio Coding 3
Расширение режима : CM (complete main)
Параметр Endianness формата : Big
Идентификатор кодека : A_AC3
Продолжительность : 2 ч. 14 м.
Вид битрейта : Постоянный
Битрейт : 448 Кбит/сек
Каналы : 6 каналов
Расположение каналов : Front: L C R, Side: L R, LFE
Частота : 48,0 КГц
Частота кадров : 31,250 кадров/сек (1536 spf)
Метод сжатия : С потерями
Размер потока : 430 Мбайт (7%)
Заголовок : AVO (А. Гаврилов)
Язык : Russian
Default : Нет
Forced : Нет
Аудио #6
Идентификатор : 7
Формат : AC-3
Формат/Информация : Audio Coding 3
Расширение режима : CM (complete main)
Параметр Endianness формата : Big
Идентификатор кодека : A_AC3
Продолжительность : 2 ч. 14 м.
Вид битрейта : Постоянный
Битрейт : 192 Кбит/сек
Каналы : 2 канала
Расположение каналов : Front: L R
Частота : 48,0 КГц
Частота кадров : 31,250 кадров/сек (1536 spf)
Метод сжатия : С потерями
Размер потока : 184 Мбайт (3%)
Заголовок : AVO (А. Кашкин)
Язык : Russian
Default : Нет
Forced : Нет
Аудио #7
Идентификатор : 8
Формат : AC-3
Формат/Информация : Audio Coding 3
Расширение режима : CM (complete main)
Параметр Endianness формата : Big
Идентификатор кодека : A_AC3
Продолжительность : 2 ч. 14 м.
Вид битрейта : Постоянный
Битрейт : 448 Кбит/сек
Каналы : 6 каналов
Расположение каналов : Front: L C R, Side: L R, LFE
Частота : 48,0 КГц
Частота кадров : 31,250 кадров/сек (1536 spf)
Метод сжатия : С потерями
Размер потока : 430 Мбайт (7%)
Язык : English
Default : Нет
Forced : Нет
Текст #1
Идентификатор : 9
Формат : UTF-8
Идентификатор кодека : S_TEXT/UTF8
Идентификатор кодека/Информация : UTF-8 Plain Text
Продолжительность : 2 ч. 5 м.
Битрейт : 2 бит/сек
Count of elements : 50
Размер потока : 2,29 Кбайт (0%)
Заголовок : Forced
Язык : Russian
Default : Да
Forced : Нет
Текст #2
Идентификатор : 10
Формат : UTF-8
Идентификатор кодека : S_TEXT/UTF8
Идентификатор кодека/Информация : UTF-8 Plain Text
Продолжительность : 2 ч. 13 м.
Битрейт : 134 бит/сек
Count of elements : 1902
Размер потока : 132 Кбайт (0%)
Язык : Russian
Default : Нет
Forced : Нет
Текст #3
Идентификатор : 11
Формат : UTF-8
Идентификатор кодека : S_TEXT/UTF8
Идентификатор кодека/Информация : UTF-8 Plain Text
Продолжительность : 2 ч. 13 м.
Битрейт : 78 бит/сек
Count of elements : 1814
Размер потока : 76,7 Кбайт (0%)
Язык : English
Default : Нет
Forced : Нет



   Похожие торренты   Торрент   Размер 
В этой теме нет новых непрочитанных сообщений. Аполлон 13 / Apollo 13 (1995) HDRip от Scarabey | D

30 | 7

1.45 ГБ

В этой теме нет новых непрочитанных сообщений. Аполлон 13 / Apollo 13 (1995) UHD BDRemux 2160p | 4K | HDR | D, P, A

0 | 0

50.96 ГБ

В этой теме нет новых непрочитанных сообщений. Аполлон 13 / Apollo 13 (1995) HD-DVDRip от New-Team | D

43 | 100

1.46 ГБ

В этой теме нет новых непрочитанных сообщений. Аполлон 13 / Apollo 13 (1995) HDRip от Scarabey | D

5 | 3

839.29 МБ

В этой теме нет новых непрочитанных сообщений. Аполлон 13 / Apollo 13 (1995) HD-DVDRip-AVC от New-Team | D

71 | 22

2.91 ГБ

В этой теме нет новых непрочитанных сообщений. Аполлон 13 / Apollo 13 (1995) HDRip-AVC | D | Open Matte

8 | 1

747.4 МБ

В этой теме нет новых непрочитанных сообщений. Аполлон 13 / Apollo 13 (1995) BDRip от Dalemake | REMASTERED | D

16 | 1

1.46 ГБ




Вы не можете начинать темы
Вы не можете отвечать на сообщения
Вы не можете редактировать свои сообщения
Вы не можете удалять свои сообщения
Вы не можете добавлять вложения

Перейти:  
 Вход
ppkBB3cker v.2 © 2008-2014 @ PPK
[ Time : 0.021s | 16 Queries | GZIP : Off ]

cron