img image001 image001 image001 image001 image001 image001 image001 image001 image001 image001 image001 image001 image001 image001 image001 image001

Planets Sun Sun Sun
Статистика раздачи
Автор: Nickolas3434 | Размер: 14.26 ГБ | Добавлен: 04 июл 2017
Раздают: 20    Качают: 3
Скачать торрент
Скачать торрент
Описание торрента

СообщениеДобавлено: 04 июл 2017 

Изгои / The Outsiders

Год выпуска: 1983
Страна: США
Производство: Zoetrope Studios
Слоган: «S.E. Hinton's classic novel about youth»
Жанр: драма, криминал
Продолжительность: 01:54:56
Перевод:
Профессиональный (полное дублирование) Blu-ray EUR
Авторский (Андрей Гаврилов)
Авторский (Сергей Визгунов)
Авторский (Юрий Немахов)

Режиссер: Френсис Форд Коппола / Francis Ford Coppola
Сценарий: Кэтлин Роуэлл / Kathleen Rowell, С.Э. Хинтон / S.E. Hinton
Продюсер: Грэй Фредериксон / Gray Frederickson, Фред Роос / Fred Roos, Ким Обри / Kim Aubry, Джан-Карло Коппола / Gian-Carlo Coppola
Оператор: Стивен Х. Бёрум / Stephen H. Burum
Композитор: Кармине Коппола / Carmine Coppola

В ролях:

Си Томас Хауэлл (Ponyboy Curtis), Ральф Маччио (Johnny Cade), Дайан Лэйн (Cherry Valance), Патрик Суэйзи (Darrel Curtis), Роб Лоу (Sodapop Curtis), Мэтт Диллон (Dallas Winston), Эмилио Эстевес (Two-Bit Matthews), Том Круз (Steve Randle), Гленн Уитроу (Tim Shepard), Лейф Гаррет (Bob Sheldon), Даррен Далтон (Randy Anderson), Мишель Майринк (Marcia)
Дублёры: Антон Колесников (Johnny Cade), Ирина Киреева (Cherry Valance), Антон Эльдаров (Darrel Curtis), Прохор Чеховской (Sodapop Curtis), Александр Гаврилин (Dallas Winston), Данил Щебланов (Steve Randle), Диомид Виноградов (Tim Shepard), Сергей Смирнов (Bob Sheldon), Вероника Саркисова (Marcia), Станислав Стрелков (Jerry; Store Clerk)

Бюджет: $10 000 000
Сборы в США: $25 697 647
Мировая премьера: 25 марта 1983

Описание: Маленький городок в штате Оклахома, 60-е годы. В извечном конфликте противостоят друг другу банды подростков, разделенных по имущественному признаку.

Рейтинг:

MPAA: PG-13 - Детям до 13 лет просмотр не желателен

Фильм снят по мотивам романа С. Э. Хинтон «Изгои» (The Outsiders, 1967).
Версия 2005 года имела хронометраж 114 минут.
Для Копполы этот низкобюджетный и простой по стилистике фильм стал передышкой после оглушительного провала фильма-феерии «От всего сердца». Для группы юных актеров, которых мэтр пригласил в картину, - фильм стал успешным стартом в большое кино.
[*]Смерть героя Мэтта Диллона в точности напоминает смерть его же героя из фильма «Через край» (1979).



raw [info]: 1920x798p 1:1 @ 24000/1001 fps (cfr)
x264 [info]: using SAR=1/1
x264 [info]: using cpu capabilities: MMX2 SSE2Fast SSSE3 FastShuffle SSE4.2 AVX
x264 [info]: profile High, level 4.1
x264 [info]: frame I:918 Avg QP:16.26 size:171289
x264 [info]: frame P:33272 Avg QP:17.57 size: 98497
x264 [info]: frame B:131156 Avg QP:20.13 size: 43275
x264 [info]: consecutive B-frames: 1.0% 1.2% 4.5% 18.2% 23.1% 43.8% 6.1% 1.0% 1.1%
x264 [info]: mb I I16..4: 4.1% 85.7% 10.2%
x264 [info]: mb P I16..4: 0.6% 17.9% 0.9% P16..4: 28.3% 37.0% 12.2% 0.0% 0.0% skip: 3.1%
x264 [info]: mb B I16..4: 0.2% 2.6% 0.1% B16..8: 41.4% 20.9% 3.1% direct:11.5% skip:20.1% L0:39.5% L1:40.5% BI:20.0%
x264 [info]: 8x8 transform intra:91.1% inter:66.0%
x264 [info]: coded y,uvDC,uvAC intra: 93.5% 94.5% 80.4% inter: 45.6% 52.5% 22.1%
x264 [info]: i16 v,h,dc,p: 23% 14% 17% 47%
x264 [info]: i8 v,h,dc,ddl,ddr,vr,hd,vl,hu: 8% 7% 5% 11% 16% 14% 14% 13% 14%
x264 [info]: i4 v,h,dc,ddl,ddr,vr,hd,vl,hu: 10% 7% 6% 9% 17% 15% 14% 11% 12%
x264 [info]: i8c dc,h,v,p: 49% 17% 15% 19%
x264 [info]: Weighted P-Frames: Y:8.8% UV:5.8%
x264 [info]: ref P L0: 41.2% 9.3% 25.1% 12.1% 11.3% 1.0% 0.1%
x264 [info]: ref B L0: 80.4% 13.7% 4.2% 1.7%
x264 [info]: ref B L1: 95.4% 4.6%
x264 [info]: kb/s:10568.22
encoded 165346 frames, 4.55 fps, 10568.22 kb/s



Общее
Уникальный идентификатор : 219315187001308428089242680976189268584 (0xA4FE918F25241E4787512892A4C5A268)
Полное имя : D:The.Outsiders.1983.1080p.BluRay.4xRus.3xEng.HDCLUB.mkv
Формат : Matroska
Версия формата : Version 2
Размер файла : 14,3 Гбайт
Продолжительность : 1 ч. 54 м.
Общий поток : 17,8 Мбит/сек
Дата кодирования : UTC 2013-02-24 17:52:29
Программа кодирования : mkvmerge v5.8.0 ('No Sleep / Pillow') built on Sep 2 2012 15:37:04
Библиотека кодирования : libebml v1.2.3 + libmatroska v1.3.0
Видео
Идентификатор : 1
Формат : AVC
Формат/Информация : Advanced Video Codec
Профиль формата : High@L4.1
Параметр CABAC формата : Да
Параметр ReFrames формата : 5 кадров
Идентификатор кодека : V_MPEG4/ISO/AVC
Продолжительность : 1 ч. 54 м.
Битрейт : 10,2 Мбит/сек
Ширина : 1920 пикселей
Высота : 798 пикселей
Соотношение сторон : 2,40:1
Режим частоты кадров : Постоянный
Частота кадров : 23,976 кадра/сек
Цветовое пространство : YUV
Субдискретизация насыщенности : 4:2:0
Битовая глубина : 8 бит
Тип развёртки : Прогрессивная
Бит/(Пиксели*Кадры) : 0.278
Размер потока : 8,21 Гбайт (58%)
Заголовок : Изгои / The Outsiders (1983) - Release for HDClub
Библиотека кодирования : x264 core 129 r2245 bc13772
Настройки программы : cabac=1 / ref=5 / deblock=1:-3:-3 / analyse=0x3:0x113 / me=umh / subme=11 / psy=1 / psy_rd=0.95:0.00 / mixed_ref=1 / me_range=32 / chroma_me=1 / trellis=2 / 8x8dct=1 / cqm=0 / deadzone=21,11 / fast_pskip=0 / chroma_qp_offset=-2 / threads=12 / lookahead_threads=2 / sliced_threads=0 / nr=0 / decimate=1 / interlaced=0 / bluray_compat=0 / constrained_intra=0 / bframes=8 / b_pyramid=2 / b_adapt=2 / b_bias=0 / direct=1 / weightb=1 / open_gop=0 / weightp=2 / keyint=240 / keyint_min=23 / scenecut=40 / intra_refresh=0 / rc=crf / mbtree=0 / crf=17.5 / qcomp=0.70 / qpmin=0 / qpmax=69 / qpstep=4 / ip_ratio=1.40 / pb_ratio=1.30 / aq=2:0.80
Язык : English
Default : Да
Forced : Нет
Основные цвета : BT.709
Характеристики трансфера : BT.709
Коэффициенты матрицы : BT.709
Аудио #1
Идентификатор : 2
Формат : DTS
Формат/Информация : Digital Theater Systems
Режим : 16
Параметр Endianness формата : Big
Идентификатор кодека : A_DTS
Продолжительность : 1 ч. 54 м.
Вид битрейта : Постоянный
Битрейт : 768 Кбит/сек
Каналы : 2 канала
Расположение каналов : Front: L R
Частота : 48,0 КГц
Битовая глубина : 24 бит
Метод сжатия : С потерями
Размер потока : 631 Мбайт (4%)
Заголовок : Дубляж, Blu-ray EUR, DTS 755 Kbps 2/0
Язык : Russian
Default : Да
Forced : Нет
Аудио #2
Идентификатор : 3
Формат : DTS
Формат/Информация : Digital Theater Systems
Режим : 16
Параметр Endianness формата : Big
Идентификатор кодека : A_DTS
Продолжительность : 1 ч. 54 м.
Вид битрейта : Постоянный
Битрейт : 1509 Кбит/сек
Каналы : 6 каналов
Расположение каналов : Front: L C R, Side: L R, LFE
Частота : 48,0 КГц
Битовая глубина : 24 бит
Метод сжатия : С потерями
Задержка видео : 21 мс.
Размер потока : 1,21 Гбайт (8%)
Заголовок : Одноголосый закадровый, А.Гаврилов, DTS 1509 Kbps 5/1
Язык : Russian
Default : Нет
Forced : Нет
Аудио #3
Идентификатор : 4
Формат : DTS
Формат/Информация : Digital Theater Systems
Режим : 16
Параметр Endianness формата : Big
Идентификатор кодека : A_DTS
Продолжительность : 1 ч. 54 м.
Вид битрейта : Постоянный
Битрейт : 1509 Кбит/сек
Каналы : 6 каналов
Расположение каналов : Front: L C R, Side: L R, LFE
Частота : 48,0 КГц
Битовая глубина : 24 бит
Метод сжатия : С потерями
Задержка видео : 21 мс.
Размер потока : 1,21 Гбайт (8%)
Заголовок : Одноголосый закадровый, С.Визгунов, DTS 1509 Kbps 5/1
Язык : Russian
Default : Нет
Forced : Нет
Аудио #4
Идентификатор : 5
Формат : DTS
Формат/Информация : Digital Theater Systems
Режим : 16
Параметр Endianness формата : Big
Идентификатор кодека : A_DTS
Продолжительность : 1 ч. 54 м.
Вид битрейта : Постоянный
Битрейт : 1509 Кбит/сек
Каналы : 6 каналов
Расположение каналов : Front: L C R, Side: L R, LFE
Частота : 48,0 КГц
Битовая глубина : 24 бит
Метод сжатия : С потерями
Задержка видео : 21 мс.
Размер потока : 1,21 Гбайт (8%)
Заголовок : Одноголосый закадровый, Ю.Немахов, DTS 1509 Kbps 5/1
Язык : Russian
Default : Нет
Forced : Нет
Аудио #5
Идентификатор : 6
Формат : DTS
Формат/Информация : Digital Theater Systems
Режим : 16
Параметр Endianness формата : Big
Идентификатор кодека : A_DTS
Продолжительность : 1 ч. 54 м.
Вид битрейта : Постоянный
Битрейт : 1509 Кбит/сек
Каналы : 6 каналов
Расположение каналов : Front: L C R, Side: L R, LFE
Частота : 48,0 КГц
Битовая глубина : 24 бит
Метод сжатия : С потерями
Задержка видео : 21 мс.
Размер потока : 1,21 Гбайт (8%)
Заголовок : Оригинал, DTS 1509 Kbps 5/1
Язык : English
Default : Нет
Forced : Нет
Аудио #6
Идентификатор : 7
Формат : AC-3
Формат/Информация : Audio Coding 3
Расширение режима : CM (complete main)
Параметр Endianness формата : Big
Идентификатор кодека : A_AC3
Продолжительность : 1 ч. 54 м.
Вид битрейта : Постоянный
Битрейт : 192 Кбит/сек
Каналы : 2 канала
Расположение каналов : Front: L R
Частота : 48,0 КГц
Битовая глубина : 16 бит
Метод сжатия : С потерями
Размер потока : 158 Мбайт (1%)
Заголовок : Комментарии режиссёра (Ф.Ф.Коппола), AC-3 192 Kbps 2/0
Язык : English
Default : Нет
Forced : Нет
Аудио #7
Идентификатор : 8
Формат : AC-3
Формат/Информация : Audio Coding 3
Расширение режима : CM (complete main)
Параметр Endianness формата : Big
Идентификатор кодека : A_AC3
Продолжительность : 1 ч. 54 м.
Вид битрейта : Постоянный
Битрейт : 192 Кбит/сек
Каналы : 2 канала
Расположение каналов : Front: L R
Частота : 48,0 КГц
Битовая глубина : 16 бит
Метод сжатия : С потерями
Размер потока : 158 Мбайт (1%)
Заголовок : Комментарии актёров, AC-3 192 Kbps 2/0
Язык : English
Default : Нет
Forced : Нет
Текст #1
Идентификатор : 9
Формат : UTF-8
Идентификатор кодека : S_TEXT/UTF8
Идентификатор кодека/Информация : UTF-8 Plain Text
Заголовок : Субтитры
Язык : Russian
Default : Нет
Forced : Нет
Текст #2
Идентификатор : 10
Формат : UTF-8
Идентификатор кодека : S_TEXT/UTF8
Идентификатор кодека/Информация : UTF-8 Plain Text
Заголовок : Субтитры SDH
Язык : English
Default : Нет
Forced : Нет
Текст #3
Идентификатор : 11
Формат : UTF-8
Идентификатор кодека : S_TEXT/UTF8
Идентификатор кодека/Информация : UTF-8 Plain Text
Заголовок : Субтитры (комментарии режиссёра Ф.Ф.Копполы)
Язык : English
Default : Нет
Forced : Нет
Текст #4
Идентификатор : 12
Формат : UTF-8
Идентификатор кодека : S_TEXT/UTF8
Идентификатор кодека/Информация : UTF-8 Plain Text
Заголовок : Субтитры (комментарии актёров)
Язык : English
Default : Нет
Forced : Нет
Меню
00:00:00.000 : en:Chapter 01
00:12:58.235 : en:Chapter 02
00:17:35.052 : en:Chapter 03
00:25:31.445 : en:Chapter 04
00:33:34.761 : en:Chapter 05
00:38:27.346 : en:Chapter 06
00:44:49.686 : en:Chapter 07
00:52:45.661 : en:Chapter 08
00:59:47.041 : en:Chapter 09
01:05:43.938 : en:Chapter 10
01:10:14.376 : en:Chapter 11
01:18:40.006 : en:Chapter 12
01:22:39.871 : en:Chapter 13
01:28:12.412 : en:Chapter 14
01:35:44.447 : en:Chapter 15
01:45:38.497 : en:Chapter 16

ЦитатаКто-то писал:
Сохранены оригинальные главы как на Blu-ray.
Дорожки №2-4 получены наложением чистого голоса на центр декодированного DTS HD-MA.
На режисерскую версию Гаврилова нет. Пропущенные места - Ю.Немахов - более подходит по голосу чем Визгунов.


Кодек: x.264
Качество: BDRip 1080p
Формат: Matroska
Источник: The.Outsiders.1983.1080p.BD-Remux
Видео: 1920x798 at 23.976 fps, x264@L4.1, crf, ~10570 kbps avg
Аудио#1: Russian: 48 kHz, DTS, 2/0 (L,R) ch, ~755.00 kbps avg |Дубляж, Blu-ray EUR|
Аудио#2: Russian: 48 kHz, DTS, 3/2 (L,C,R,l,r) + LFE ch, ~1509.00 kbps avg |Авторский, А.Гаврилов|
Аудио#3: Russian: 48 kHz, DTS, 3/2 (L,C,R,l,r) + LFE ch, ~1509.00 kbps avg |Авторский, С.Визгунов|
Аудио#4: Russian: 48 kHz, DTS, 3/2 (L,C,R,l,r) + LFE ch, ~1509.00 kbps avg |Авторский, Ю.Немахов|
Аудио#5: English: 48 kHz, DTS, 3/2 (L,C,R,l,r) + LFE ch, ~1509.00 kbps avg
Аудио#6: English: 48 kHz, AC3, 2/0 (L,R) ch, ~192.00 kbps avg |Coppola's Commentary|
Аудио#7: English: 48 kHz, AC3, 2/0 (L,R) ch, ~192.00 kbps avg |Actors' Commentary|
Субтитры: Russian, English SDH, English (Coppola's commentary), English (Actors' commentary)


Релиз от:



   Похожие торренты   Торрент   Размер 
В этой теме нет новых непрочитанных сообщений. Изгои / The Outsiders (1983) BDRip от MediaClub | КПК

28 | 4

519.68 МБ

В этой теме нет новых непрочитанных сообщений. Изгои / The Outsiders (1983) BDRip 720p от HDCLUB

25 | 6

9.75 ГБ

В этой теме нет новых непрочитанных сообщений. Веселые мелодии: Коллекционное издание [1-50 из 50] / Looney Tunes: Ultimate Collector's Edition (1936-1966) BDRip-AVC от ExKinoRay

100 | 4

7.18 ГБ

В этой теме нет новых непрочитанных сообщений. Изгои / The Outsiders (1983) HDRip-AVC | D

0 | 0

744.92 МБ

В этой теме нет новых непрочитанных сообщений. Изгои / The Outsiders (1983) HDRip от Scarabey | Р

77 | 37

1.45 ГБ

В этой теме нет новых непрочитанных сообщений. Над водой 4: Пантеон. Коллекционное издание / Surface 4: The Pantheon Collector's Edition (2013) PC

11 | 4

1.22 ГБ

В этой теме нет новых непрочитанных сообщений. История Скарлетт. Коллекционное издание / Manor Memoirs Collector's Edition (2014) PC

1478 | 29

309.84 МБ




Вы не можете начинать темы
Вы не можете отвечать на сообщения
Вы не можете редактировать свои сообщения
Вы не можете удалять свои сообщения
Вы не можете добавлять вложения

Перейти:  
 Вход
ppkBB3cker v.2 © 2008-2014 @ PPK
[ Time : 0.023s | 16 Queries | GZIP : Off ]

cron