img image001 image001 image001 image001 image001 image001 image001 image001 image001 image001 image001 image001 image001 image001 image001 image001

Planets Sun Sun Sun
Статистика раздачи
Автор: Nickolas3434 | Размер: 2.18 ГБ | Добавлен: 28 июн 2017
Раздают: 24    Качают: 0
Скачать торрент
Скачать торрент
Описание торрента

СообщениеДобавлено: 28 июн 2017 

Семейное ограбление / Mes trеsors


Перевод: Профессиональный (полное дублирование) Лицензия BD RUS
Cубтитры: отсутствуют
Формат: BDRip-AVC, MKV, H.264, AC3
Страна: Франция
Режиссер: Паскаль Бурдьо
Жанр: комедия
Продолжительность: 01:30:38
Год выпуска: 2017
В ролях: Жан Рено, Рем Кериси, Камиль Шаму, Бруно Санчес, Паскаль Демолон, Фамке Янссен
Описание: Анжела и Анжелика — две абсолютно разные девушки, которые не имеют ничего общего. Кроме, разве что, отца, которого они никогда не видели. И вот однажды он появился в их жизни. Вор международного масштаба решил наверстать упущенное, создав с дочерьми безумную команду, чтобы совершить ограбление века. И все бы ничего, только гениальный план Патрика дает сбой, и все идет не по запланированному сценарию...


Видео: 1152x480 (2.40:1), 24,000 fps, AVC MPEG-4 (x264), , ~ 2996 Кбит/сек, 0.226 bit/pixel
Аудио: 48 kHz, AC3 Dolby Digital, 3/2 (L,C,R,l,r) + LFE ch, ~448 kbps avg







Общее
Уникальный идентификатор : 216278224558389010244368751142164603659 (0xA2B5ABC013597EB082F9275759CDA30B)
Полное имя : E:\Закачка-2\Semeynoye.Ogrableniye.2017.RUS.BDRip.x264.HELLYWOOD.mkv
Формат : Matroska
Версия формата : Version 4 / Version 2
Размер файла : 2,18 Гбайт
Продолжительность : 1 ч. 30 м.
Общий поток : 3438 Кбит/сек
Название фильма : Mes trésors (2017)
Дата кодирования : UTC 2017-05-27 12:05:10
Программа кодирования : mkvmerge v5.9.0 ('On The Loose') built on Dec 15 2012 16:39:58
Библиотека кодирования : libebml v1.3.0 + libmatroska v1.4.0

Видео
Идентификатор : 1
Формат : AVC
Формат/Информация : Advanced Video Codec
Профиль формата :
Параметр CABAC формата : Да
Параметр ReFrames формата : 10 кадров
Идентификатор кодека : V_MPEG4/ISO/AVC
Продолжительность : 1 ч. 30 м.
Битрейт : 2996 Кбит/сек
Ширина : 1152 пикселя
Высота : 480 пикселей
Соотношение сторон : 2,40:1
Режим частоты кадров : Постоянный
Частота кадров : 24,000 кадра/сек
Цветовое пространство : YUV
Субдискретизация насыщенности : 4:2:0
Битовая глубина : 8 бит
Тип развёртки : Прогрессивная
Бит/(Пиксели*Кадры) : 0.226
Размер потока : 1,85 Гбайт (85%)
Заголовок : potroks
Библиотека кодирования : x264 core 146 r2538 121396c
Настройки программы : cabac=1 / ref=10 / deblock=1:-2:-2 / analyse=0x3:0x113 / me=umh / subme=11 / psy=1 / psy_rd=1.00:0.05 / mixed_ref=1 / me_range=48 / chroma_me=1 / trellis=2 / 8x8dct=1 / cqm=0 / deadzone=21,11 / fast_pskip=0 / chroma_qp_offset=-3 / threads=9 / lookahead_threads=2 / sliced_threads=0 / nr=0 / decimate=0 / interlaced=0 / bluray_compat=0 / constrained_intra=0 / bframes=11 / b_pyramid=2 / b_adapt=2 / b_bias=0 / direct=3 / weightb=1 / open_gop=0 / weightp=2 / keyint=240 / keyint_min=23 / scenecut=40 / intra_refresh=0 / rc_lookahead=60 / rc=2pass / mbtree=0 / bitrate=2996 / ratetol=1.0 / qcomp=0.70 / qpmin=0 / qpmax=69 / qpstep=4 / cplxblur=20.0 / qblur=0.5 / vbv_maxrate=14000 / vbv_bufsize=14000 / nal_hrd=none / filler=0 / ip_ratio=1.40 / pb_ratio=1.30 / aq=1:0.80
Язык : French
Default : Да
Forced : Нет

Аудио
Идентификатор : 2
Формат : AC-3
Формат/Информация : Audio Coding 3
Параметр Endianness формата : Big
Идентификатор кодека : A_AC3
Продолжительность : 1 ч. 30 м.
Вид битрейта : Постоянный
Битрейт : 448 Кбит/сек
Каналы : 6 каналов
Расположение каналов : Front: L C R, Side: L R, LFE
Частота : 48,0 КГц
Частота кадров : 31,250 кадров/сек (1536 spf)
Битовая глубина : 16 бит
Метод сжатия : С потерями
Размер потока : 290 Мбайт (13%)
Заголовок : Dub | DD 5.1 @ 448 kbps - Blu-ray RUS
Язык : Russian
ServiceKind/String : Complete Main
Default : Да
Forced : Нет

Меню
00:00:00.000 : en:(01)00:00:00:000
00:00:41.250 : en:(02)00:00:41:250
00:10:19.666 : en:(03)00:10:19:666
00:21:48.458 : en:(04)00:21:48:458
00:31:16.875 : en:(05)00:31:16:875
00:43:53.666 : en:(06)00:43:53:666
00:57:39.791 : en:(07)00:57:39:791
01:08:40.416 : en:(08)01:08:40:416
01:17:47.500 : en:(09)01:17:47:500





   Похожие торренты   Торрент   Размер 
В этой теме нет новых непрочитанных сообщений. Семейное ограбление / Mes trésors (2017) BDRip-AVC от HELLYWOOD | Лицензия

79 | 1

1.46 ГБ

В этой теме нет новых непрочитанных сообщений. Семейное ограбление / Mes trésors (2017) BDRip 720p от KinoGadget | iPad | Лицензия

44 | 0

1.51 ГБ

В этой теме нет новых непрочитанных сообщений. Семейное ограбление / Family Heist / Mes trésors (2017) BDRip от ImperiaFilm | Лицензия

36 | 7

745.61 МБ

В этой теме нет новых непрочитанных сообщений. Семейное ограбление / Family Heist / Mes trésors (2017) BDRip 1080p от ExKinoRay | Лицензия

253 | 12

6.85 ГБ

В этой теме нет новых непрочитанных сообщений. Семейное ограбление / Mes trésors (2017) CAMRip | D

56 | 1

1.37 ГБ

В этой теме нет новых непрочитанных сообщений. Семейное ограбление / Mes trésors (2017) WEB-DLRip-AVC от OlLanDGroup | iTunes

484 | 1

1.35 ГБ

В этой теме нет новых непрочитанных сообщений. Семейное ограбление / Family Heist / Mes trésors (2017) WEB-DL 1080p | iTunes

1492 | 17

3.25 ГБ




Вы не можете начинать темы
Вы не можете отвечать на сообщения
Вы не можете редактировать свои сообщения
Вы не можете удалять свои сообщения
Вы не можете добавлять вложения

Перейти:  
 Вход
ppkBB3cker v.2 © 2008-2014 @ PPK
[ Time : 8.734s | 17 Queries | GZIP : Off ]

cron