img image001 image001 image001 image001 image001 image001 image001 image001 image001 image001 image001 image001 image001 image001 image001 image001

Planets Sun Sun Sun
Статистика раздачи
Автор: Nickolas3434 | Размер: 3.38 ГБ | Добавлен: 21 май 2017
Раздают: 454    Качают: 15
Скачать торрент
Скачать торрент
Описание торрента

СообщениеДобавлено: 21 май 2017 

Информация о фильме
Название: Передельщик
Оригинальное название: Redivider / Kill Switch
Год выхода: 2017
Жанр: Фантастика
Режиссер: Тим Смит
В ролях: Дэн Стивенс, Беренис Марло, Чарити Уэйкфилд, Тиго Гернандт, Хлоя-Мэй Катхилл, Гийс Шолтен ван Ашат, Бас Кейзер, Дон Альфонсо, Мике Либанон, Майк Реус
О фильме:
История о пилоте, который пытается спасти свою семью и планету после провала эксперимента с использованием неограниченной энергии, проводимого, чтобы обуздать параллельные вселенные.

Страна: Нидерланды, Германия, США
Студия: CTM Productions BV, FilmNation Entertainment
Продолжительность: 01:31:16
Перевод: Любительский одноголосый | BadBajo |
Релиз от: BadBajo
Файл
Качество: WEB-DL 1080p
Видео: AVC/H.264, 1904х792, ~4528 Kbps
Звук:
Аудио #01: 48 kHz, AC3, 5.1, 384 Kbps | BadBajo | RUS |
Аудио #02: 48 kHz, AC3, 5.1, 384 Kbps | Оригинал | ENG |
Субтитры: Английские

Complete name : Kill.Switch.2017.1080p.WEB-DL.DD5.1.H264_rus_BadBajo.mkv
Format : Matroska
Format version : Version 4 / Version 2
File size : 3.38 GiB
Duration : 1 h 31 min
Overall bit rate : 5 299 kb/s
Movie name : Kill.Switch.2017.1080p.WEB-DL.DD5.1.H264-FGT
Encoded date : UTC 2017-05-19 19:40:07
Writing application : mkvmerge v9.5.0 ('Quiet Fire') 64bit
Writing library : libebml v1.3.4 + libmatroska v1.4.5
Cover : Yes
Attachments : cover.jpg
Video
ID : 1
Format : AVC
Format/Info : Advanced Video Codec
Format profile : High@L4
Format settings, CABAC : Yes
Format settings, ReFrames : 5 frames
Codec ID : V_MPEG4/ISO/AVC
Duration : 1 h 31 min
Bit rate : 4 528 kb/s
Width : 1 904 pixels
Height : 792 pixels
Display aspect ratio : 2.40:1
Frame rate mode : Constant
Frame rate : 23.976 (23976/1000) FPS
Color space : YUV
Chroma subsampling : 4:2:0
Bit depth : 8 bits
Scan type : Progressive
Bits/(Pixel*Frame) : 0.125
Stream size : 2.89 GiB (85%)
Title : Kill.Switch.2017.1080p.WEB-DL.DD5.1.H264-FGT
Language : English
Default : Yes
Forced : No
Color range : Limited
Color primaries : BT.709
Transfer characteristics : BT.709
Matrix coefficients : BT.709
Audio #1
ID : 2
Format : AC-3
Format/Info : Audio Coding 3
Format settings, Endianness : Big
Codec ID : A_AC3
Duration : 1 h 31 min
Bit rate mode : Constant
Bit rate : 384 kb/s
Channel(s) : 6 channels
Channel positions : Front: L C R, Side: L R, LFE
Sampling rate : 48.0 kHz
Frame rate : 31.250 FPS (1536 spf)
Bit depth : 16 bits
Compression mode : Lossy
Delay relative to video : -42 ms
Stream size : 251 MiB (7%)
Title : Kill.Switch.2017_rus_BadBajo
Language : Russian
Service kind : Complete Main
Default : Yes
Forced : Yes
Audio #2
ID : 3
Format : AC-3
Format/Info : Audio Coding 3
Format settings, Endianness : Big
Codec ID : A_AC3
Duration : 1 h 31 min
Bit rate mode : Constant
Bit rate : 384 kb/s
Channel(s) : 6 channels
Channel positions : Front: L C R, Side: L R, LFE
Sampling rate : 48.0 kHz
Frame rate : 31.250 FPS (1536 spf)
Bit depth : 16 bits
Compression mode : Lossy
Delay relative to video : -42 ms
Stream size : 251 MiB (7%)
Title : Kill.Switch.2017.1080p.WEB-DL.DD5.1.H264-FGT
Language : English
Service kind : Complete Main
Default : No
Forced : No
Text
ID : 4
Format : UTF-8
Codec ID : S_TEXT/UTF8
Codec ID/Info : UTF-8 Plain Text
Duration : 1 h 29 min
Bit rate : 47 b/s
Count of elements : 882
Stream size : 31.1 KiB (0%)
Language : English
Default : No
Forced : No
Menu
00:00:00.000 : en:Opening Sequence
00:05:37.000 : en:Echo Damage Report
00:11:20.000 : en:In The Dark
00:17:19.000 : en:Gravitational Portal
00:23:50.000 : en:Restricted Area
00:29:28.000 : en:Greatest Challenge Yet
00:36:45.000 : en:Homesick
00:41:01.000 : en:They Evacuated
00:47:10.000 : en:Back Me Up
00:53:24.000 : en:It's This Whole Place
00:58:09.000 : en:Give Me The Box
01:04:22.000 : en:Don't Go
01:09:03.000 : en:Don't Trust Him
01:15:02.000 : en:Where's The Box?
01:21:13.000 : en:A Big Responsibility
01:27:27.000 : en:End Credits



   Похожие торренты   Торрент   Размер 
В этой теме нет новых непрочитанных сообщений. Передельщик / Redivider / Kill Switch (2017) WEB-DLRip от ImperiaFilm | КПК | L

51 | 4

412 МБ

В этой теме нет новых непрочитанных сообщений. Передельщик / Redivider / Kill Switch (2017) WEB-DLRip от ExKinoRay | L1

243 | 3

1.37 ГБ

В этой теме нет новых непрочитанных сообщений. Передельщик / Redivider / Kill Switch (2017) WEB-DLRip от MegaPeer | L1

58 | 0

745.94 МБ

В этой теме нет новых непрочитанных сообщений. Рубильник / Kill Switch (2017) WEB-DLRip-AVC от OlLanDGroup | L1

310 | 1

1.87 ГБ

В этой теме нет новых непрочитанных сообщений. Рубильник / Kill Switch (Тим Смит ) [2017, фантастика, боевик, BDRip-AVC] VO / Фантастика

4 | 0

1.45 ГБ

В этой теме нет новых непрочитанных сообщений. Смертельный удар / Kill Switch (2008) HDRip-AVC от k.e.n & NNMClub | Гаевский

3 | 3

1.45 ГБ

В этой теме нет новых непрочитанных сообщений. Первое убийство / First Kill (2017) WEB-DL 1080p | L1

227 | 23

7.41 ГБ




Вы не можете начинать темы
Вы не можете отвечать на сообщения
Вы не можете редактировать свои сообщения
Вы не можете удалять свои сообщения
Вы не можете добавлять вложения

Перейти:  
 Вход
ppkBB3cker v.2 © 2008-2014 @ PPK
[ Time : 0.044s | 17 Queries | GZIP : Off ]

cron