img image001 image001 image001 image001 image001 image001 image001 image001 image001 image001 image001 image001 image001 image001 image001 image001

Planets Sun Sun Sun
Статистика раздачи
Автор: Nickolas3434 | Размер: 1.98 ГБ | Добавлен: 06 май 2017
Раздают: 87    Качают: 15
Скачать торрент
Скачать торрент
Описание торрента

СообщениеДобавлено: 06 май 2017 

Информация о фильме
Название: Мир, в котором мы живем / Мир для нас / Мир к нам
Оригинальное название: Un monde à nous
Год выхода: 2008
Жанр: триллер, драма, криминал
Режиссер: Фредерик Балекджян
В ролях: Эдуар Баэр, Антон Балекджян, Нассереба Кейта, Филипп Лефевр, Жюльен Фрисон, Ксавье Мали, Вероника Галле, Ален Шаба
О фильме:
Отец Ноэ - жутко засекреченный агент. Никому не доверять, ни на кого не полагаться, всегда быть настороже - так построена его жизнь, и сына он натаскивает в том же ключе. Глядя на маленького Ноэ, никому и в голову не придет, что он способен голыми руками расправиться с кучей отморозков. Но что делать, когда агент оказывается под угрозой раскрытия?..

Производство: Франция / Chez Wam, Studio 37, Mars Films, TF1 Films Production
Продолжительность: 01:27:27
Перевод: авторский одноголосый [Владимир Штейн]
Файл
Качество: DVDRip-AVC
Формат: MKV
Видео: MPEG-4 AVC, 1024x576 (16:9), 25.000 fps, 2341 kbps, 0.159 bit/pixel
Аудио #1: русский, AC3 5.1, 48 kHz, 448 kbps
Аудио #2: французский, AC3 5.1, 48 kHz, 448 kbps
Формат : Matroska
Версия формата : Version 4 / Version 2
Размер файла : 1,98 Гбайт
Продолжительность : 1 ч. 27 м.
Общий поток : 3239 Кбит/сек
Дата кодирования : UTC 2017-05-05T14:15:36Z
Программа кодирования : mkvmerge v7.9.0 ('Birds') 64bit
Библиотека кодирования : Lavf57.7.2
Видео
Идентификатор : 1
Формат : AVC
Формат/Информация : Advanced Video Codec
Профиль формата : High@L4.1
Параметр CABAC формата : Да
Параметр ReFrames формата : 7 кадров
Идентификатор кодека : V_MPEG4/ISO/AVC
Продолжительность : 1 ч. 27 м.
Битрейт : 2341 Кбит/сек
Ширина : 1024 пикселя
Высота : 576 пикселей
Соотношение сторон : 16:9
Режим частоты кадров : Постоянный
Частота кадров : 25,000 кадров/сек
Цветовое пространство : YUV
Субдискретизация насыщенности : 4:2:0
Битовая глубина : 8 бит
Тип развёртки : Прогрессивная
Бит/(Пиксели*Кадры) : 0.159
Размер потока : 1,39 Гбайт (70%)
Библиотека кодирования : x264 core 148 r2708 86b7198
Настройки программы : cabac=1 / ref=7 / deblock=1:-3:-3 / analyse=0x3:0x113 / me=umh / subme=10 / psy=1 / psy_rd=1.00:0.00 / mixed_ref=1 / me_range=24 / chroma_me=1 / trellis=2 / 8x8dct=1 / cqm=0 / deadzone=21,11 / fast_pskip=1 / chroma_qp_offset=-2 / threads=4 / lookahead_threads=1 / sliced_threads=0 / nr=0 / decimate=1 / interlaced=0 / bluray_compat=0 / constrained_intra=0 / bframes=3 / b_pyramid=0 / b_adapt=1 / b_bias=0 / direct=1 / weightb=1 / open_gop=0 / weightp=2 / keyint=250 / keyint_min=25 / scenecut=40 / intra_refresh=0 / rc_lookahead=10 / rc=2pass / mbtree=1 / bitrate=2341 / ratetol=1.0 / qcomp=0.60 / qpmin=0 / qpmax=69 / qpstep=4 / cplxblur=20.0 / qblur=0.5 / vbv_maxrate=62500 / vbv_bufsize=78125 / nal_hrd=none / filler=0 / ip_ratio=1.40 / aq=1:1.00
Default : Да
Forced : Нет
Цветовой диапазон : Limited
Основные цвета : BT.601 PAL
Характеристики трансфера : BT.709
Коэффициенты матрицы : BT.601
Аудио #1
Идентификатор : 2
Формат : AC-3
Формат/Информация : Audio Coding 3
Расширение режима : CM (complete main)
Параметр Endianness формата : Big
Идентификатор кодека : A_AC3
Продолжительность : 1 ч. 27 м.
Вид битрейта : Постоянный
Битрейт : 448 Кбит/сек
Каналы : 6 каналов
Расположение каналов : Front: L C R, Side: L R, LFE
Частота : 48,0 КГц
Метод сжатия : С потерями
Задержка видео : -5 мс.
Размер потока : 280 Мбайт (14%)
Заголовок : Владимир Штейн
Язык : Russian
Default : Да
Forced : Нет
Аудио #2
Идентификатор : 3
Формат : AC-3
Формат/Информация : Audio Coding 3
Расширение режима : CM (complete main)
Параметр Endianness формата : Big
Идентификатор кодека : A_AC3
Продолжительность : 1 ч. 27 м.
Вид битрейта : Постоянный
Битрейт : 448 Кбит/сек
Каналы : 6 каналов
Расположение каналов : Front: L C R, Side: L R, LFE
Частота : 48,0 КГц
Метод сжатия : С потерями
Задержка видео : -5 мс.
Размер потока : 280 Мбайт (14%)
Заголовок : Original
Язык : French
Default : Нет
Forced : Нет
Меню
00:00:00.000 : :Chapter 1
00:08:44.680 : :Chapter 2
00:14:06.040 : :Chapter 3
00:22:59.560 : :Chapter 4
00:34:55.080 : :Chapter 5
00:41:57.320 : :Chapter 6
00:46:41.240 : :Chapter 7
00:54:07.400 : :Chapter 8
01:02:34.920 : :Chapter 9
01:10:40.600 : :Chapter 10
01:15:50.520 : :Chapter 11
01:24:58.080 : :Chapter 12



   Похожие торренты   Торрент   Размер 
В этой теме нет новых непрочитанных сообщений. Весело мы живём / Merrily We Live (1938) DVDRip от egoleshik | P1

36 | 10

1.37 ГБ

В этой теме нет новых непрочитанных сообщений. Что от нас осталось / What remains of us / Ce qu'il reste de nous (2004) DVDRip

14 | 8

1.52 ГБ

В этой теме нет новых непрочитанных сообщений. За нас двоих / A nous deux (1979) DVDRip-AVC от New-Team | P

21 | 10

1.45 ГБ

В этой теме нет новых непрочитанных сообщений. Наша безумная жизнь / La vie est à nous! (2005) DVDRip | P2

61 | 4

1.46 ГБ

В этой теме нет новых непрочитанных сообщений. Мы не состаримся вместе / Nous ne vieillirons pas ensemble (1972) DVDRip | L1

3 | 0

1.45 ГБ

В этой теме нет новых непрочитанных сообщений. Роза между нами / Une rose entre nous (1994) DVDRip | L1

49 | 10

335.39 МБ

В этой теме нет новых непрочитанных сообщений. К нам, маленькие англичанки! / À nous les petites Anglaises! (1975) DVDRip от FilmRus | P2

51 | 12

1.46 ГБ




Вы не можете начинать темы
Вы не можете отвечать на сообщения
Вы не можете редактировать свои сообщения
Вы не можете удалять свои сообщения
Вы не можете добавлять вложения

Перейти:  
 Вход
ppkBB3cker v.2 © 2008-2014 @ PPK
[ Time : 0.030s | 16 Queries | GZIP : Off ]

cron